Начать новую тему Ответить на тему
Статистика раздачи
Размер: 95.55 МБ | Добавлен: 26 мар 2019, 19:58 | Скачали: 0
Сидеров: 3  [0 байт/сек]    Личеров: 1  [0 байт/сек]
Пред. тема | След. тема 

Автор
Сообщение

СообщениеДобавлено: 26 мар 2019, 19:58 

Ответить с цитатой 

Dalbello / Heavy Boots (The Clawfinger Remixes)
Жанр: Pop Rock
Носитель: CDM
Страна-производитель диска: Netherlands
Год издания: 1996
Издатель (лейбл): Spin Records ‎
Номер по каталогу: 7243 8 62286 2 8
Страна: Canada
Аудиокодек: FLAC (*.flac)
Тип рипа: image+.cue
Битрейт аудио: lossless
Продолжительность: 00:13:10
Источник (релизер): Собственный диск
Наличие сканов в содержимом раздачи: нет
Треклист:
01 - Heavy Boots (Clawfinger Remix 1)
02 - Heavy Boots (Clawfinger Remix 2)
03 - Heavy Boots (Album Version)
Код:
Exact Audio Copy V1.0 beta 3 from 29. August 2011
Отчёт EAC об извлечении, выполненном 19. мая 2014, 15:07
Dalbello / Heavy Boots
Дисковод: PIONEER BD-RW   BDR-209D   Adapter: 0  ID: 0
Режим чтения                 : Достоверность
Использование точного потока : Да
Отключение кэша аудио        : Да
Использование указателей C2  : Нет
Коррекция смещения при чтении                     : 667
Способность читать области Lead-in и Lead-out     : Нет
Заполнение пропущенных сэмплов тишиной            : Да
Удаление блоков с тишиной в начале и конце        : Нет
При вычислениях CRC использовались нулевые сэмплы : Да
Интерфейс                                         : Встроенный Win32-интерфейс для Win NT/2000
Выходной формат          : Пользовательский кодировщик
Выбранный битрейт        : 128 kBit/s
Качество                 : Высокий
Добавление ID3-тега      : Да
Утилита сжатия           : C:\Program Files (x86)\Exact Audio Copy\Flac\flac.exe
Дополнительные параметры : -V -8 -T "Date=%year%" -T "Genre=%genre%" %source%
TOC извлечённого CD
     Трек |   Старт  | Длительность | Начальный сектор | Конечный сектор
    ---------------------------------------------------------------------
       1  |  0:00.00 |    4:08.07   |           0      |      18606
       2  |  4:08.07 |    4:30.35   |       18607      |      38891
       3  |  8:38.42 |    4:31.65   |       38892      |      59281
Характеристики диапазона извлечения и сообщения об ошибках
Выбранный диапазон
     Имя файла D:\Flac\Новая папка\Dalbello - Heavy Boots.wav
     Пиковый уровень 98.0 %
     Скорость извлечения 2.1 X
     Качество диапазона 100.0 %
     CRC теста 2EBD7028
     CRC копии 2EBD7028
     Копирование... OK
Ошибок не произошло
AccurateRip: сводка
Трек  1  : извлечено точно (доверие 2)  [B554460B]  (AR v2)
Трек  2  : извлечено точно (доверие 2)  [DB07FBDE]  (AR v2)
Трек  3  : извлечено точно (доверие 2)  [D39B4C80]  (AR v2)
Все треки извлечены точно
Конец отчёта
==== Контрольная сумма отчёта 3C6A9E6D075E53710483C0CAE906B1E2EE937707E062BDDCA5A2ABED53649DFE ====
Правила, инструкции, FAQ!!!
Торрент  Добавлен [26 мар 2019, 19:58] Скачать торрент Магнет ссылка
Скачать торрент
[ Размер 15.63 КБ / Просмотров 4 ]

Статус
Проверен 
 
Размер  95.55 МБ
Приватный: Нет (DHT включён)
.torrent скачан  0
 


     Отправить личное сообщение
   
Страница 1 из 1
Показать сообщения за:  Поле сортировки  
Начать новую тему Ответить на тему


Сейчас этот форум просматривают: нет зарегистрированных пользователей и гости: 0


Вы не можете начинать темы
Вы не можете отвечать на сообщения
Вы не можете редактировать свои сообщения
Вы не можете удалять свои сообщения
Вы не можете добавлять вложения

Перейти:  
cron