Начать новую тему Ответить на тему
Статистика раздачи
Размер: 328.74 МБ | Добавлен: 26 мар 2019, 18:39 | Скачали: 1
Сидеров: 1  [0 байт/сек]    Личеров: 0  [0 байт/сек]
Пред. тема | След. тема 

Автор
Сообщение

СообщениеДобавлено: 26 мар 2019, 18:39 

Ответить с цитатой 

Crowded House - Classic Masters


Страна:
Жанр: Pop-Rock
Страна-производитель диска: US
Год издания диска: 2003
Издатель (лейбл): Capitol Records
Catalog # 72435-82678-2-2
Аудио кодек: FLAC (*.flac)
Тип рипа: tracks+.cue
Битрейт аудио: lossless
Продолжительность: 47:19
Источник: Waffles
Covers: Front, Back, CD
Треклист:
01. Something So Strong
02. Weather With You
03. When You Come [Live]
04. Don't Dream It's Over
05. Fingers of Love
06. Nails in My Feet
07. Never Be the Same
08. Chocolate Cake
09. It's Only Natural
10. Distant Sun [Remix]
11. Sister Madly [Live]
12. Hole in the River
Код:
Exact Audio Copy V0.99 prebeta 5 from 4. May 2009
EAC extraction logfile from 14. May 2010, 23:23
Crowded House / Classic Masters
Used drive  : ATAPI   iHAP322   8   Adapter: 0  ID: 1
Read mode               : Secure
Utilize accurate stream : Yes
Defeat audio cache      : Yes
Make use of C2 pointers : No
Read offset correction                      : 6
Overread into Lead-In and Lead-Out          : No
Fill up missing offset samples with silence : Yes
Delete leading and trailing silent blocks   : No
Null samples used in CRC calculations       : Yes
Used interface                              : Native Win32 interface for Win NT & 2000
Gap handling                                : Appended to previous track
Used output format              : User Defined Encoder
Selected bitrate                : 320 kBit/s
Quality                         : High
Add ID3 tag                     : No
Command line compressor         : C:\Program Files\Exact Audio Copy\Flac\flac.exe
Additional command line options : -V -8 -T "artist=%a" -T "title=%t" -T "album=%g" -T "date=%y" -T "tracknumber=%n" -T "genre=%m" %s
TOC of the extracted CD
     Track |   Start  |  Length  | Start sector | End sector
    ---------------------------------------------------------
        1  |  0:00.00 |  2:54.65 |         0    |    13114
        2  |  2:54.65 |  3:44.17 |     13115    |    29931
        3  |  6:39.07 |  5:47.09 |     29932    |    55965
        4  | 12:26.16 |  3:59.03 |     55966    |    73893
        5  | 16:25.19 |  4:27.22 |     73894    |    93940
        6  | 20:52.41 |  3:39.73 |     93941    |   110438
        7  | 24:32.39 |  4:29.02 |    110439    |   130615
        8  | 29:01.41 |  4:01.10 |    130616    |   148700
        9  | 33:02.51 |  3:31.51 |    148701    |   164576
       10  | 36:34.27 |  3:46.27 |    164577    |   181553
       11  | 40:20.54 |  2:57.52 |    181554    |   194880
       12  | 43:18.31 |  4:00.56 |    194881    |   212936
Track  1
     Filename F:\EACrips\Crowded House - Classic Masters (2003) [FLAC]\01 - Something So Strong.wav
     Pre-gap length  0:00:02.00
     Peak level 100.0 %
     Track quality 100.0 %
     Test CRC 3CCF9DF6
     Copy CRC 3CCF9DF6
     Accurately ripped (confidence 10)  [5DAAAAFB]
     Copy OK
Track  2
     Filename F:\EACrips\Crowded House - Classic Masters (2003) [FLAC]\02 - Weather With You.wav
     Peak level 100.0 %
     Track quality 100.0 %
     Test CRC 8BA75E9B
     Copy CRC 8BA75E9B
     Accurately ripped (confidence 9)  [01EEE84D]
     Copy OK
Track  3
     Filename F:\EACrips\Crowded House - Classic Masters (2003) [FLAC]\03 - When You Come (Live).wav
     Peak level 100.0 %
     Track quality 100.0 %
     Test CRC FF562703
     Copy CRC FF562703
     Accurately ripped (confidence 10)  [B35D2065]
     Copy OK
Track  4
     Filename F:\EACrips\Crowded House - Classic Masters (2003) [FLAC]\04 - Don't Dream It's Over.wav
     Peak level 100.0 %
     Track quality 100.0 %
     Test CRC E2CE8920
     Copy CRC E2CE8920
     Accurately ripped (confidence 10)  [0F29595C]
     Copy OK
Track  5
     Filename F:\EACrips\Crowded House - Classic Masters (2003) [FLAC]\05 - Fingers Of Love.wav
     Peak level 100.0 %
     Track quality 99.9 %
     Test CRC 5931E2CF
     Copy CRC 5931E2CF
     Accurately ripped (confidence 9)  [4085762E]
     Copy OK
Track  6
     Filename F:\EACrips\Crowded House - Classic Masters (2003) [FLAC]\06 - Nails In My Feet.wav
     Peak level 100.0 %
     Track quality 100.0 %
     Test CRC 0AE5E7E8
     Copy CRC 0AE5E7E8
     Accurately ripped (confidence 9)  [89F006CC]
     Copy OK
Track  7
     Filename F:\EACrips\Crowded House - Classic Masters (2003) [FLAC]\07 - Never Be The Same.wav
     Peak level 100.0 %
     Track quality 100.0 %
     Test CRC 138ED3F9
     Copy CRC 138ED3F9
     Accurately ripped (confidence 9)  [50162107]
     Copy OK
Track  8
     Filename F:\EACrips\Crowded House - Classic Masters (2003) [FLAC]\08 - Chocolate Cake.wav
     Peak level 100.0 %
     Track quality 100.0 %
     Test CRC 82717C1D
     Copy CRC 82717C1D
     Accurately ripped (confidence 9)  [4C091792]
     Copy OK
Track  9
     Filename F:\EACrips\Crowded House - Classic Masters (2003) [FLAC]\09 - It's Only Natural.wav
     Peak level 100.0 %
     Track quality 100.0 %
     Test CRC 59902BB8
     Copy CRC 59902BB8
     Accurately ripped (confidence 9)  [2D4D95BD]
     Copy OK
Track 10
     Filename F:\EACrips\Crowded House - Classic Masters (2003) [FLAC]\10 - Distant Sun (Remix).wav
     Peak level 100.0 %
     Track quality 100.0 %
     Test CRC 99077076
     Copy CRC 99077076
     Accurately ripped (confidence 10)  [A414F46A]
     Copy OK
Track 11
     Filename F:\EACrips\Crowded House - Classic Masters (2003) [FLAC]\11 - Sister Madly (Live).wav
     Peak level 100.0 %
     Track quality 100.0 %
     Test CRC 88B840D2
     Copy CRC 88B840D2
     Accurately ripped (confidence 10)  [D3EF2037]
     Copy OK
Track 12
     Filename F:\EACrips\Crowded House - Classic Masters (2003) [FLAC]\12 - Hole In The River.wav
     Peak level 99.3 %
     Track quality 99.9 %
     Test CRC 147377AB
     Copy CRC 147377AB
     Accurately ripped (confidence 9)  [1D8D7AF4]
     Copy OK
All tracks accurately ripped
No errors occurred
End of status report
Код:
REM GENRE Rock
REM DATE 2003
REM DISCID A50B170C
REM COMMENT "ExactAudioCopy v0.99pb5"
PERFORMER "Crowded House"
TITLE "Classic Masters"
FILE "01 - Something So Strong.wav" WAVE
  TRACK 01 AUDIO
    INDEX 01 00:00:00
FILE "02 - Weather With You.wav" WAVE
  TRACK 02 AUDIO
    INDEX 01 00:00:00
FILE "03 - When You Come (Live).wav" WAVE
  TRACK 03 AUDIO
    INDEX 01 00:00:00
FILE "04 - Don't Dream It's Over.wav" WAVE
  TRACK 04 AUDIO
    INDEX 01 00:00:00
FILE "05 - Fingers Of Love.wav" WAVE
  TRACK 05 AUDIO
    INDEX 01 00:00:00
FILE "06 - Nails In My Feet.wav" WAVE
  TRACK 06 AUDIO
    INDEX 01 00:00:00
FILE "07 - Never Be The Same.wav" WAVE
  TRACK 07 AUDIO
    INDEX 01 00:00:00
FILE "08 - Chocolate Cake.wav" WAVE
  TRACK 08 AUDIO
    INDEX 01 00:00:00
FILE "09 - It's Only Natural.wav" WAVE
  TRACK 09 AUDIO
    INDEX 01 00:00:00
FILE "10 - Distant Sun (Remix).wav" WAVE
  TRACK 10 AUDIO
    INDEX 01 00:00:00
FILE "11 - Sister Madly (Live).wav" WAVE
  TRACK 11 AUDIO
    INDEX 01 00:00:00
FILE "12 - Hole In The River.wav" WAVE
  TRACK 12 AUDIO
    INDEX 01 00:00:00
Код:
[CUETools log; Date: 01.02.2011 14:49:22; Version: 2.0.9]
[CTDB TOCID: CooAahUfmRIGO1l9rMQT0kWesIk-] found.
        [ CTDBID ] Status
        [df8685bc] (10/10) Accurately ripped
[AccurateRip ID: 001585f9-00c91836-a50b170c] found.
Track   [ CRC    ] Status
 01     [5daaaafb] (11/13) Accurately ripped
 02     [01eee84d] (10/12) Accurately ripped
 03     [b35d2065] (11/13) Accurately ripped
 04     [0f29595c] (11/13) Accurately ripped
 05     [4085762e] (10/12) Accurately ripped
 06     [89f006cc] (10/12) Accurately ripped
 07     [50162107] (10/12) Accurately ripped
 08     [4c091792] (10/12) Accurately ripped
 09     [2d4d95bd] (10/12) Accurately ripped
 10     [a414f46a] (11/13) Accurately ripped
 11     [d3ef2037] (11/13) Accurately ripped
 12     [1d8d7af4] (10/12) Accurately ripped
Track Peak [ CRC32  ] [W/O NULL] [  LOG   ]
 --  100,0 [61978888] [7AF61C87]
 01  100,0 [3CCF9DF6] [1934F7EA]   CRC32
 02  100,0 [8BA75E9B] [B381ADBA]   CRC32
 03  100,0 [FF562703] [1C6EE5B3]   CRC32
 04  100,0 [E2CE8920] [870DDDEA]   CRC32
 05  100,0 [5931E2CF] [49F7DA3C]   CRC32
 06  100,0 [0AE5E7E8] [78BA02F4]   CRC32
 07  100,0 [138ED3F9] [F417F5BC]   CRC32
 08  100,0 [82717C1D] [F4A136F6]   CRC32
 09  100,0 [59902BB8] [91557377]   CRC32
 10  100,0 [99077076] [7179E791]   CRC32
 11  100,0 [88B840D2] [FBE95A64]   CRC32
 12   99,3 [147377AB] [37D0582B]   CRC32
Neil Finn - Guitar / Vox / Piano
Nick Seymour - Bass
Mark Hart - Guitar / Keys
Matt Sherrod - Drums
Notes:
Remastered at Capitol Mastering, Hollywood, CA. USA.
When You Come recorded live in Newcastle, Australia (3/3/92). (Previously unreleased in the U.S.)
Sister Madly recorded live at The Hammersmith Apollo, London, England (11/12/93). (Previously unreleased in the U.S.)
This compilation (P) © 2003 Capitol Records, Inc.
Правила, инструкции, FAQ!!!
Торрент  Добавлен [26 мар 2019, 18:39] Скачать торрент Магнет ссылка
Скачать торрент
[ Размер 14.24 КБ / Просмотров 5 ]

Статус
Проверен 
 
Размер  328.74 МБ
Приватный: Нет (DHT включён)
.torrent скачан  1
 


     Отправить личное сообщение
   
Страница 1 из 1
Показать сообщения за:  Поле сортировки  
Начать новую тему Ответить на тему


Сейчас этот форум просматривают: нет зарегистрированных пользователей и гости: 0


Вы не можете начинать темы
Вы не можете отвечать на сообщения
Вы не можете редактировать свои сообщения
Вы не можете удалять свои сообщения
Вы не можете добавлять вложения

Перейти:  
cron