Начать новую тему Ответить на тему
Статистика раздачи
Размер: 357.98 МБ | Добавлен: 26 мар 2019, 19:17 | Скачали: 0
Сидеров: 2  [0 байт/сек]    Личеров: 1  [0 байт/сек]
Пред. тема | След. тема 

Автор
Сообщение

СообщениеДобавлено: 26 мар 2019, 19:17 

Ответить с цитатой 

Vincze Lilla (Napoleon Boulevard) - Angyalnak, madarnak... (2008)
Жанр: pop rock, crossover
Страна-производитель диска: Hungary
Год издания: 2008
Издатель (лейбл): Joó Produkció
Номер по каталогу: 5998272708003
Страна исполнителя: Hungary
Аудиокодек: FLAC (*.flac)
Тип рипа: tracks+.cue
Битрейт аудио: lossless
Продолжительность: 00:57:08
Источник (релизер): e-rock.ru (Simurg)
Наличие сканов в содержимом раздачи: да
Треклист:
01. Korbefog az eg
02. Angyalnak, madarnak

03. Tu Cosa Fai Stasera
04. Idegen bolygo

05. 'O Mare e Tu
06. Ejvarazs
07. Az ejfel
08. Figlio Perduto
09. Fogd meg a kezem
10. Ave Maria
11. Samson es Delila
12. Bachiana
13. Ave Maria
Код:
Exact Audio Copy V0.99 prebeta 4 from 23. January 2008
EAC extraction logfile from 11. August 2009, 20:49
Vincze Lilla / Angyalnak, madarnak...
Used drive  : PLEXTOR CD-R   PREMIUM2   Adapter: 5  ID: 1
Read mode               : Secure
Utilize accurate stream : Yes
Defeat audio cache      : Yes
Make use of C2 pointers : No
Read offset correction                      : 30
Overread into Lead-In and Lead-Out          : No
Fill up missing offset samples with silence : Yes
Delete leading and trailing silent blocks   : No
Null samples used in CRC calculations       : Yes
Used interface                              : Installed external ASPI interface
Gap handling                                : Appended to previous track
Used output format              : User Defined Encoder
Selected bitrate                : 1024 kBit/s
Quality                         : High
Add ID3 tag                     : No
Command line compressor         : E:\Program Files\Flac\flac.exe
Additional command line options : -V -8 -T "artist=%a" -T "title=%t" -T "album=%g" -T "date=%y" -T "tracknumber=%n" -T "genre=%m" %s
TOC of the extracted CD
     Track |   Start  |  Length  | Start sector | End sector
    ---------------------------------------------------------
        1  |  0:00.00 |  4:30.41 |         0    |    20290
        2  |  4:30.41 |  4:33.16 |     20291    |    40781
        3  |  9:03.57 |  4:11.07 |     40782    |    59613
        4  | 13:14.64 |  4:31.14 |     59614    |    79952
        5  | 17:46.03 |  4:45.61 |     79953    |   101388
        6  | 22:31.64 |  3:20.38 |    101389    |   116426
        7  | 25:52.27 |  4:01.16 |    116427    |   134517
        8  | 29:53.43 |  4:34.28 |    134518    |   155095
        9  | 34:27.71 |  6:06.39 |    155096    |   182584
       10  | 40:34.35 |  1:55.45 |    182585    |   191254
       11  | 42:30.05 |  5:54.68 |    191255    |   217872
       12  | 48:24.73 |  4:19.25 |    217873    |   237322
       13  | 52:44.23 |  4:24.12 |    237323    |   257134
Track  1
     Filename K:\Lossless Audio Hun\Vincze Lilla - Angyalnak, madarnak... (2008)\01. Korbeforog az eg.wav
     Pre-gap length  0:00:02.00
     Peak level 98.8 %
     Track quality 100.0 %
     Test CRC 31AE25AB
     Copy CRC 31AE25AB
     Track not present in AccurateRip database
     Copy OK
Track  2
     Filename K:\Lossless Audio Hun\Vincze Lilla - Angyalnak, madarnak... (2008)\02. Angyalnak, madarnak....wav
     Pre-gap length  0:00:02.00
     Peak level 98.8 %
     Track quality 100.0 %
     Test CRC 0079D111
     Copy CRC 0079D111
     Track not present in AccurateRip database
     Copy OK
Track  3
     Filename K:\Lossless Audio Hun\Vincze Lilla - Angyalnak, madarnak... (2008)\03. Tu cosa fai stasera.wav
     Pre-gap length  0:00:02.00
     Peak level 98.8 %
     Track quality 100.0 %
     Test CRC A6738C98
     Copy CRC A6738C98
     Track not present in AccurateRip database
     Copy OK
Track  4
     Filename K:\Lossless Audio Hun\Vincze Lilla - Angyalnak, madarnak... (2008)\04. Idegen bolygo.wav
     Pre-gap length  0:00:02.00
     Peak level 98.8 %
     Track quality 100.0 %
     Test CRC 4642085D
     Copy CRC 4642085D
     Track not present in AccurateRip database
     Copy OK
Track  5
     Filename K:\Lossless Audio Hun\Vincze Lilla - Angyalnak, madarnak... (2008)\05. 'O mare e tu.wav
     Pre-gap length  0:00:02.00
     Peak level 98.8 %
     Track quality 100.0 %
     Test CRC 71C0CCBF
     Copy CRC 71C0CCBF
     Track not present in AccurateRip database
     Copy OK
Track  6
     Filename K:\Lossless Audio Hun\Vincze Lilla - Angyalnak, madarnak... (2008)\06. Ejvarazs.wav
     Pre-gap length  0:00:02.00
     Peak level 98.8 %
     Track quality 100.0 %
     Test CRC D41B8E1B
     Copy CRC D41B8E1B
     Track not present in AccurateRip database
     Copy OK
Track  7
     Filename K:\Lossless Audio Hun\Vincze Lilla - Angyalnak, madarnak... (2008)\07. Az ejfel.wav
     Pre-gap length  0:00:02.00
     Peak level 98.8 %
     Track quality 100.0 %
     Test CRC 9637A92A
     Copy CRC 9637A92A
     Track not present in AccurateRip database
     Copy OK
Track  8
     Filename K:\Lossless Audio Hun\Vincze Lilla - Angyalnak, madarnak... (2008)\08. Figlio perduto.wav
     Pre-gap length  0:00:02.00
     Peak level 98.8 %
     Track quality 100.0 %
     Test CRC 4E6A156A
     Copy CRC 4E6A156A
     Track not present in AccurateRip database
     Copy OK
Track  9
     Filename K:\Lossless Audio Hun\Vincze Lilla - Angyalnak, madarnak... (2008)\09. Fogd meg a kezem.wav
     Pre-gap length  0:00:02.00
     Peak level 98.8 %
     Track quality 100.0 %
     Test CRC 20266774
     Copy CRC 20266774
     Track not present in AccurateRip database
     Copy OK
Track 10
     Filename K:\Lossless Audio Hun\Vincze Lilla - Angyalnak, madarnak... (2008)\10. Ave maria.wav
     Pre-gap length  0:00:02.00
     Peak level 98.8 %
     Track quality 100.0 %
     Test CRC 339C1DBE
     Copy CRC 339C1DBE
     Track not present in AccurateRip database
     Copy OK
Track 11
     Filename K:\Lossless Audio Hun\Vincze Lilla - Angyalnak, madarnak... (2008)\11. Samson es Delila.wav
     Pre-gap length  0:00:02.00
     Peak level 98.8 %
     Track quality 100.0 %
     Test CRC 443D8C1A
     Copy CRC 443D8C1A
     Track not present in AccurateRip database
     Copy OK
Track 12
     Filename K:\Lossless Audio Hun\Vincze Lilla - Angyalnak, madarnak... (2008)\12. Bachiana.wav
     Pre-gap length  0:00:02.00
     Peak level 98.8 %
     Track quality 99.9 %
     Test CRC 8E1D37A6
     Copy CRC 8E1D37A6
     Track not present in AccurateRip database
     Copy OK
Track 13
     Filename K:\Lossless Audio Hun\Vincze Lilla - Angyalnak, madarnak... (2008)\13. Ave Maria.wav
     Pre-gap length  0:00:02.00
     Peak level 98.8 %
     Track quality 100.0 %
     Test CRC 1D9D5DB7
     Copy CRC 1D9D5DB7
     Track not present in AccurateRip database
     Copy OK
None of the tracks are present in the AccurateRip database
No errors occurred
End of status report
Код:
REM GENRE Pop
REM DATE 2008
REM DISCID C00D640D
REM COMMENT "ExactAudioCopy v0.99pb5"
PERFORMER "Vincze Lilla"
TITLE "Angyalnak, madárnak..."
FILE "01. Korbeforog az eg.flac" WAVE
  TRACK 01 AUDIO
    TITLE "Körbeforog az ég"
    PERFORMER "Vincze Lilla"
    INDEX 01 00:00:00
  TRACK 02 AUDIO
    TITLE "Angyalnak, madárnak..."
    PERFORMER "Vincze Lilla"
    INDEX 00 04:28:41
FILE "02. Angyalnak, madarnak....flac" WAVE
    INDEX 01 00:00:00
  TRACK 03 AUDIO
    TITLE "Tu cosa fai stasera"
    PERFORMER "Vincze Lilla"
    INDEX 00 04:31:16
FILE "03. Tu cosa fai stasera.flac" WAVE
    INDEX 01 00:00:00
  TRACK 04 AUDIO
    TITLE "Idegen bolygó"
    PERFORMER "Vincze Lilla"
    INDEX 00 04:09:07
FILE "04. Idegen bolygo.flac" WAVE
    INDEX 01 00:00:00
  TRACK 05 AUDIO
    TITLE "'O mare e tu"
    PERFORMER "Vincze Lilla"
    INDEX 00 04:29:14
FILE "05. 'O mare e tu.flac" WAVE
    INDEX 01 00:00:00
  TRACK 06 AUDIO
    TITLE "Éjvarázs"
    PERFORMER "Vincze Lilla"
    INDEX 00 04:43:61
FILE "06. Ejvarazs.flac" WAVE
    INDEX 01 00:00:00
  TRACK 07 AUDIO
    TITLE "Az éjfél"
    PERFORMER "Vincze Lilla"
    INDEX 00 03:18:38
FILE "Az ejfel.flac" WAVE
    INDEX 01 00:00:00
  TRACK 08 AUDIO
    TITLE "Figlio perduto"
    PERFORMER "Vincze Lilla"
    INDEX 00 03:59:16
FILE "08. Figlio perduto.flac" WAVE
    INDEX 01 00:00:00
  TRACK 09 AUDIO
    TITLE "Fogd meg a kezem"
    PERFORMER "Vincze Lilla"
    INDEX 00 04:32:28
FILE "09. Fogd meg a kezem.flac" WAVE
    INDEX 01 00:00:00
  TRACK 10 AUDIO
    TITLE "Ave maria"
    PERFORMER "Vincze Lilla"
    INDEX 00 06:04:39
FILE "10. Ave maria.flac" WAVE
    INDEX 01 00:00:00
  TRACK 11 AUDIO
    TITLE "Sámson és Delila"
    PERFORMER "Vincze Lilla"
    INDEX 00 01:53:45
FILE "11. Samson es Delila.flac" WAVE
    INDEX 01 00:00:00
  TRACK 12 AUDIO
    TITLE "Bachiana"
    PERFORMER "Vincze Lilla"
    INDEX 00 05:52:68
FILE "12. Bachiana.flac" WAVE
    INDEX 01 00:00:00
  TRACK 13 AUDIO
    TITLE "Ave Maria"
    PERFORMER "Vincze Lilla"
    INDEX 00 04:17:25
FILE "13. Ave Maria.flac" WAVE
    INDEX 01 00:00:00
Код:
-----------------------
DON'T MODIFY THIS FILE
-----------------------
PERFORMER: auCDtect Task Manager, ver. 1.5.1RC6 build 1.5.1.7
Copyright (c) 2008-2010 y-soft. All rights reserved
[url=http://y-soft.org]http://y-soft.org[/url]
ANALYZER: auCDtect: CD records authenticity detector, version 0.8.2
Copyright (c) 2004 Oleg Berngardt. All rights reserved.
Copyright (c) 2004 Alexander Djourik. All rights reserved.
FILE: 13. Ave Maria.flac
  Size: 24718031 Hash: 03770914317962412F85B67B79067D64 Accuracy: -m0
  Conclusion: CDDA 99%
  Signature: B1049DB17F949FFD29B215ACD58FE1D4662BC547
FILE: 12. Bachiana.flac
  Size: 22701867 Hash: 32E04B45587A6292CB09DE495787BA76 Accuracy: -m0
  Conclusion: CDDA 100%
  Signature: E3EEB662E8BDBBEEE5D7D13C5535E7AC53C83754
FILE: 11. Samson es Delila.flac
  Size: 32749058 Hash: DFCF442068FD35E892A0BE109C1FEFB6 Accuracy: -m0
  Conclusion: CDDA 100%
  Signature: C74C0A74FEB3F55CE8A60EE31546A92406167B20
FILE: 10. Ave maria.flac
  Size: 9400132 Hash: 37C4DAA687B59CF5E13586AC741015FA Accuracy: -m0
  Conclusion: CDDA 99%
  Signature: 1BC2A00FA368DD6930CA0FA8508395F7735FC66E
FILE: 09. Fogd meg a kezem.flac
  Size: 32701427 Hash: C247AA94B09FDB05C87D5F17C5195558 Accuracy: -m0
  Conclusion: CDDA 100%
  Signature: E9C46C2FFCC7F1C636D708BB5A30ACD15E8B279A
FILE: 08. Figlio perduto.flac
  Size: 26748014 Hash: 4B19F17994C58459AF3DAE740EBE34EA Accuracy: -m0
  Conclusion: CDDA 99%
  Signature: 93C67CEB6F8A3C562CAB75829C2B57C52DE969EB
FILE: 07. Az ejfel.flac
  Size: 29611675 Hash: A9A0C7DF129C51D3658E3ADC6A1B9D09 Accuracy: -m0
  Conclusion: CDDA 99%
  Signature: D2529A45EC70F40D284C9B6097F273CF1E6F2BC2
FILE: 06. Ejvarazs.flac
  Size: 24417495 Hash: 21367E9C2BE0303DE04C9EDF47102821 Accuracy: -m0
  Conclusion: CDDA 100%
  Signature: 1EA839B1338406D9B187D823CEE63C88795AE60F
FILE: 05. 'O mare e tu.flac
  Size: 31895452 Hash: 0D3A16AE3BB573AC9F5B874054EDB5F5 Accuracy: -m0
  Conclusion: CDDA 100%
  Signature: 9B1C5BE06F34B9E22C480CBE6728F1F22F2F8172
FILE: 04. Idegen bolygo.flac
  Size: 29400730 Hash: D4BB95A4E3CC422EF917E80F37723ACA Accuracy: -m0
  Conclusion: CDDA 100%
  Signature: 3034809684A832C528BB4F4D32C9408A672715CA
FILE: 03. Tu cosa fai stasera.flac
  Size: 26617703 Hash: FA5B03C7625710B4599AC2E9129593A3 Accuracy: -m0
  Conclusion: CDDA 100%
  Signature: 1F48A5B8E444D70365C5987AB400B8E59A1E0F87
FILE: 02. Angyalnak, madarnak....flac
  Size: 28521955 Hash: B3249430B26EA8FD00A0F6B188B10B61 Accuracy: -m0
  Conclusion: CDDA 100%
  Signature: D54852EAA8C7170B0B99EA1B86582A4AF32E3758
FILE: 01. Korbeforog az eg.flac
  Size: 32360614 Hash: 9F77813C17564D87B9240FDB78737EA8 Accuracy: -m0
  Conclusion: CDDA 99%
  Signature: ECDC83CB48B80E26A4BA5C49D3B0DE4C2B2353C1
Доп. информация: Сольный альбом Лиллы Винце, вокалистки группы Napoleon Boulevard. Стиль - Neo-Romantic, Ballad, Vocal.
Правила, инструкции, FAQ!!!
Торрент  Добавлен [26 мар 2019, 19:17] Скачать торрент Магнет ссылка
Скачать торрент
[ Размер 15.74 КБ / Просмотров 1 ]

Статус
Проверен 
 
Размер  357.98 МБ
Приватный: Нет (DHT включён)
.torrent скачан  0
 


     Отправить личное сообщение
   
Страница 1 из 1
Показать сообщения за:  Поле сортировки  
Начать новую тему Ответить на тему


Сейчас этот форум просматривают: нет зарегистрированных пользователей и гости: 0


Вы не можете начинать темы
Вы не можете отвечать на сообщения
Вы не можете редактировать свои сообщения
Вы не можете удалять свои сообщения
Вы не можете добавлять вложения

Перейти:  
cron