Начать новую тему Ответить на тему
Статистика раздачи
Размер: 281.04 МБ | Добавлен: 26 мар 2019, 20:50 | Скачали: 0
Сидеров: 0  [0 байт/сек]    Личеров: 7  [0 байт/сек]
Пред. тема | След. тема 

Автор
Сообщение

СообщениеДобавлено: 26 мар 2019, 20:50 

Ответить с цитатой 

Josh Kelley *Georgia Clay*


Страна:
Жанр: Pop-Rock, Country
Страна-производитель диска: US
Год издания диска: 2011
Издатель (лейбл): MCA Nashville
Номер по каталогу: B0015093-02
Аудиокодек: FLAC (*.flac)
Тип рипа: tracks+.cue
Битрейт аудио: lossless
Продолжительность: 00:41:25
Источник (релизер): What
Scans: нет
Треклист:
01. Georgia Clay (3:04)
02. A Real Good Try (3:39)
03. Gone Like That (3:59)
04. Baby Blue Eyes (3:40)
05. Naleigh Moon (3:44)
06. Two Cups Of Coffee (3:53)
07. Rainin' Whiskey (3:29)
08. Great Idea (3:26)
09. Learning You (4:17)
10. Ain't Lettin' Go (4:02)
11. Don't You Go (4:14)
Код:
Exact Audio Copy V1.0 beta 1 from 15. November 2010
EAC extraction logfile from 8. June 2011, 15:17
Josh Kelley / Georgia Clay
Used drive  : HL-DT-STRW/DVD GCC-M10N   Adapter: 1  ID: 0
Read mode               : Secure
Utilize accurate stream : Yes
Defeat audio cache      : Yes
Make use of C2 pointers : No
Read offset correction                      : 102
Overread into Lead-In and Lead-Out          : No
Fill up missing offset samples with silence : Yes
Delete leading and trailing silent blocks   : No
Null samples used in CRC calculations       : Yes
Used interface                              : Native Win32 interface for Win NT & 2000
Gap handling                                : Appended to previous track
Used output format              : User Defined Encoder
Selected bitrate                : 128 kBit/s
Quality                         : High
Add ID3 tag                     : No
Command line compressor         : C:\Program Files (x86)\Exact Audio Copy\Flac\flac.exe
Additional command line options : -V -8 -T "artist=%a" -T "title=%t" -T "album=%g" -T "date=%y" -T "tracknumber=%n" -T "genre=%m" %s
TOC of the extracted CD
     Track |   Start  |  Length  | Start sector | End sector
    ---------------------------------------------------------
        1  |  0:00.00 |  3:04.18 |         0    |    13817
        2  |  3:04.18 |  3:38.43 |     13818    |    30210
        3  |  6:42.61 |  3:58.47 |     30211    |    48107
        4  | 10:41.33 |  3:39.50 |     48108    |    64582
        5  | 14:21.08 |  3:43.54 |     64583    |    81361
        6  | 18:04.62 |  3:53.26 |     81362    |    98862
        7  | 21:58.13 |  3:28.48 |     98863    |   114510
        8  | 25:26.61 |  3:26.03 |    114511    |   129963
        9  | 28:52.64 |  4:17.37 |    129964    |   149275
       10  | 33:10.26 |  4:02.07 |    149276    |   167432
       11  | 37:12.33 |  4:14.30 |    167433    |   186512
Track  1
     Filename C:\wave dumps\01 - Georgia Clay.wav
     Pre-gap length  0:00:02.00
     Peak level 99.7 %
     Extraction speed 2.3 X
     Track quality 100.0 %
     Test CRC 1650BFA2
     Copy CRC 1650BFA2
     Accurately ripped (confidence 1)  [4FC8A5C6]
     Copy OK
Track  2
     Filename C:\wave dumps\02 - A Real Good Try.wav
     Pre-gap length  0:00:00.48
     Peak level 98.5 %
     Extraction speed 2.6 X
     Track quality 100.0 %
     Test CRC 0EBEABD1
     Copy CRC 0EBEABD1
     Accurately ripped (confidence 1)  [7A524F63]
     Copy OK
Track  3
     Filename C:\wave dumps\03 - Gone Like That.wav
     Peak level 95.4 %
     Extraction speed 2.8 X
     Track quality 100.0 %
     Test CRC A789DFE4
     Copy CRC A789DFE4
     Accurately ripped (confidence 1)  [1A0E360A]
     Copy OK
Track  4
     Filename C:\wave dumps\04 - Baby Blue Eyes.wav
     Pre-gap length  0:00:00.02
     Peak level 94.2 %
     Extraction speed 3.0 X
     Track quality 100.0 %
     Test CRC BEDDC12A
     Copy CRC BEDDC12A
     Accurately ripped (confidence 1)  [A7B4927B]
     Copy OK
Track  5
     Filename C:\wave dumps\05 - Naleigh Moon.wav
     Pre-gap length  0:00:01.17
     Peak level 94.2 %
     Extraction speed 3.2 X
     Track quality 100.0 %
     Test CRC 262E2AC9
     Copy CRC 262E2AC9
     Accurately ripped (confidence 1)  [218C015F]
     Copy OK
Track  6
     Filename C:\wave dumps\06 - Two Cups of Coffee.wav
     Pre-gap length  0:00:00.50
     Peak level 99.1 %
     Extraction speed 3.3 X
     Track quality 100.0 %
     Test CRC 248CBA43
     Copy CRC 248CBA43
     Accurately ripped (confidence 1)  [BF8BB42D]
     Copy OK
Track  7
     Filename C:\wave dumps\07 - Rainin' Whiskey.wav
     Pre-gap length  0:00:00.57
     Peak level 99.7 %
     Extraction speed 3.5 X
     Track quality 100.0 %
     Test CRC 5F4BEB28
     Copy CRC 5F4BEB28
     Accurately ripped (confidence 1)  [C88FCC52]
     Copy OK
Track  8
     Filename C:\wave dumps\08 - Great Idea.wav
     Peak level 99.7 %
     Extraction speed 3.6 X
     Track quality 100.0 %
     Test CRC 7D1CB6D4
     Copy CRC 7D1CB6D4
     Accurately ripped (confidence 1)  [997E4007]
     Copy OK
Track  9
     Filename C:\wave dumps\09 - Learning You.wav
     Pre-gap length  0:00:00.46
     Peak level 99.7 %
     Extraction speed 3.9 X
     Track quality 100.0 %
     Test CRC AE246A8E
     Copy CRC AE246A8E
     Accurately ripped (confidence 1)  [54F5A9DD]
     Copy OK
Track 10
     Filename C:\wave dumps\10 - Ain't Lettin' Go.wav
     Pre-gap length  0:00:00.78
     Peak level 99.7 %
     Extraction speed 3.3 X
     Track quality 99.9 %
     Test CRC 760450BA
     Copy CRC 760450BA
     Accurately ripped (confidence 1)  [20B58E77]
     Copy OK
Track 11
     Filename C:\wave dumps\11 - Don't You Go.wav
     Pre-gap length  0:00:00.73
     Peak level 99.7 %
     Extraction speed 4.1 X
     Track quality 100.0 %
     Test CRC E753DA71
     Copy CRC E753DA71
     Accurately ripped (confidence 1)  [9E2602AC]
     Copy OK
All tracks accurately ripped
No errors occurred
End of status report
==== Log checksum DB962B3F7968D8C9ED1F056D21F5E405C2C887B309F8552E7FFC8CA6C0FC2329 ====
Код:
REM GENRE Country
REM DATE 2011
REM DISCID 8B09B60B
REM COMMENT "ExactAudioCopy v1.0b1"
PERFORMER "Josh Kelley"
TITLE "Georgia Clay"
FILE "01 - Georgia Clay.wav" WAVE
  TRACK 01 AUDIO
    TITLE "Georgia Clay"
    PERFORMER "Josh Kelley"
    INDEX 01 00:00:00
  TRACK 02 AUDIO
    TITLE "A Real Good Try"
    PERFORMER "Josh Kelley"
    INDEX 00 03:03:57
FILE "02 - A Real Good Try.wav" WAVE
    INDEX 01 00:00:00
FILE "03 - Gone Like That.wav" WAVE
  TRACK 03 AUDIO
    TITLE "Gone Like That"
    PERFORMER "Josh Kelley"
    INDEX 01 00:00:00
  TRACK 04 AUDIO
    TITLE "Baby Blue Eyes"
    PERFORMER "Josh Kelley"
    INDEX 00 03:58:45
FILE "04 - Baby Blue Eyes.wav" WAVE
    INDEX 01 00:00:00
  TRACK 05 AUDIO
    TITLE "Naleigh Moon"
    PERFORMER "Josh Kelley"
    INDEX 00 03:38:37
FILE "05 - Naleigh Moon.wav" WAVE
    INDEX 01 00:00:00
  TRACK 06 AUDIO
    TITLE "Two Cups of Coffee"
    PERFORMER "Josh Kelley"
    INDEX 00 03:43:16
FILE "06 - Two Cups of Coffee.wav" WAVE
    INDEX 01 00:00:00
  TRACK 07 AUDIO
    TITLE "Rainin' Whiskey"
    PERFORMER "Josh Kelley"
    INDEX 00 03:52:58
FILE "07 - Rainin' Whiskey.wav" WAVE
    INDEX 01 00:00:00
FILE "08 - Great Idea.wav" WAVE
  TRACK 08 AUDIO
    TITLE "Great Idea"
    PERFORMER "Josh Kelley"
    INDEX 01 00:00:00
  TRACK 09 AUDIO
    TITLE "Learning You"
    PERFORMER "Josh Kelley"
    INDEX 00 03:25:43
FILE "09 - Learning You.wav" WAVE
    INDEX 01 00:00:00
  TRACK 10 AUDIO
    TITLE "Ain't Lettin' Go"
    PERFORMER "Josh Kelley"
    INDEX 00 04:16:53
FILE "10 - Ain't Lettin' Go.wav" WAVE
    INDEX 01 00:00:00
  TRACK 11 AUDIO
    TITLE "Don't You Go"
    PERFORMER "Josh Kelley"
    INDEX 00 04:01:27
FILE "11 - Don't You Go.wav" WAVE
    INDEX 01 00:00:00
Правила, инструкции, FAQ!!!
Торрент  Добавлен [26 мар 2019, 20:50] Скачать торрент Магнет ссылка
Скачать торрент
[ Размер 12.21 КБ / Просмотров 8 ]

Статус
Проверен 
 
Размер  281.04 МБ
Приватный: Нет (DHT включён)
.torrent скачан  0
 


     Отправить личное сообщение
   
Страница 1 из 1
Показать сообщения за:  Поле сортировки  
Начать новую тему Ответить на тему


Сейчас этот форум просматривают: нет зарегистрированных пользователей и гости: 0


Вы не можете начинать темы
Вы не можете отвечать на сообщения
Вы не можете редактировать свои сообщения
Вы не можете удалять свои сообщения
Вы не можете добавлять вложения

Перейти:  
cron