Начать новую тему Ответить на тему
Статистика раздачи
Размер: 619.7 МБ | Добавлен: 26 мар 2019, 18:40 | Скачали: 0
Сидеров: 0  [0 байт/сек]    Личеров: 0  [0 байт/сек]
Пред. тема | След. тема 

Автор
Сообщение

СообщениеДобавлено: 26 мар 2019, 18:40 

Ответить с цитатой 

CORTINA
коллекция

Жанр: Pop Rock
Год издания диска: 2007 - 2011
Страна: Norway (Oslo)
Аудио кодек: FLAC (*.flac)
Тип рипа: tracks+.cue
Битрейт аудио: lossless
Коврики: есть
#777Издатель (лейбл): Majorstudio
01. Been a Long Time - 3:17
02. Falling Star - 4:05
03. Here I Stand - 3:31
04. Lift Me Up - 4:18
05. This Is How I Feel - 3:18
06. Don't Leave Me - 3:57
07. Ready to Go - 5:20
08. Smile Johnny - 4:12
09. Western Breeze - 5:01
10. In the Rain - 3:40
11. Lord - 5:09
Код:
Exact Audio Copy V0.99 prebeta 5 from 4. May 2009
EAC extraction logfile from 19. August 2011, 2:17
Cortina / Been a Long Time
Used drive  : PIONEER DVD-RW  DVR-118L   Adapter: 2  ID: 0
Read mode               : Secure
Utilize accurate stream : Yes
Defeat audio cache      : Yes
Make use of C2 pointers : No
Read offset correction                      : 6
Overread into Lead-In and Lead-Out          : No
Fill up missing offset samples with silence : Yes
Delete leading and trailing silent blocks   : No
Null samples used in CRC calculations       : Yes
Used interface                              : Native Win32 interface for Win NT & 2000
Gap handling                                : Appended to previous track
Used output format              : User Defined Encoder
Selected bitrate                : 128 kBit/s
Quality                         : High
Add ID3 tag                     : No
Command line compressor         : C:\Program Files (x86)\Exact Audio Copy\Flac\flac.exe
Additional command line options : -8 -V -T "ARTIST=%a" -T "TITLE=%t" -T "ALBUM=%g" -T "DATE=%y"
-T "TRACKNUMBER=%n" -T "GENRE=%m" -T "COMMENT=EAC FLAC -8" %s
TOC of the extracted CD
     Track |   Start  |  Length  | Start sector | End sector
    ---------------------------------------------------------
        1  |  0:00.00 |  3:16.59 |         0    |    14758
        2  |  3:16.59 |  4:04.59 |     14759    |    33117
        3  |  7:21.43 |  3:30.52 |     33118    |    48919
        4  | 10:52.20 |  4:18.04 |     48920    |    68273
        5  | 15:10.24 |  3:18.24 |     68274    |    83147
        6  | 18:28.48 |  3:57.32 |     83148    |   100954
        7  | 22:26.05 |  5:20.05 |    100955    |   124959
        8  | 27:46.10 |  4:12.20 |    124960    |   143879
        9  | 31:58.30 |  5:00.74 |    143880    |   166453
       10  | 36:59.29 |  3:40.09 |    166454    |   182962
       11  | 40:39.38 |  5:08.51 |    182963    |   206113
Track  1
     Filename D:\Торрент\Cortina\2007 - Been a Long Time\01. Cortina - Been a Long Time.wav
     Pre-gap length  0:00:02.00
     Peak level 99.5 %
     Track quality 100.0 %
     Test CRC 53EC8187
     Copy CRC 53EC8187
     Track not present in AccurateRip database
     Copy OK
Track  2
     Filename D:\Торрент\Cortina\2007 - Been a Long Time\02. Cortina - Falling Star.wav
     Pre-gap length  0:00:00.38
     Peak level 99.8 %
     Track quality 100.0 %
     Test CRC CE7AC388
     Copy CRC CE7AC388
     Track not present in AccurateRip database
     Copy OK
Track  3
     Filename D:\Торрент\Cortina\2007 - Been a Long Time\03. Cortina - Here I Stand.wav
     Pre-gap length  0:00:00.62
     Peak level 99.8 %
     Track quality 100.0 %
     Test CRC 6B872E1D
     Copy CRC 6B872E1D
     Track not present in AccurateRip database
     Copy OK
Track  4
     Filename D:\Торрент\Cortina\2007 - Been a Long Time\04. Cortina - Lift Me Up.wav
     Pre-gap length  0:00:02.80
     Peak level 99.8 %
     Track quality 100.0 %
     Test CRC 10EF77E4
     Copy CRC 10EF77E4
     Track not present in AccurateRip database
     Copy OK
Track  5
     Filename D:\Торрент\Cortina\2007 - Been a Long Time\05. Cortina - This Is How I Feel.wav
     Pre-gap length  0:00:01.04
     Peak level 99.8 %
     Track quality 100.0 %
     Test CRC DE03B6E6
     Copy CRC DE03B6E6
     Track not present in AccurateRip database
     Copy OK
Track  6
     Filename D:\Торрент\Cortina\2007 - Been a Long Time\06. Cortina - Don't Leave Me.wav
     Pre-gap length  0:00:02.30
     Peak level 99.8 %
     Track quality 99.9 %
     Test CRC E4DB36BF
     Copy CRC E4DB36BF
     Track not present in AccurateRip database
     Copy OK
Track  7
     Filename D:\Торрент\Cortina\2007 - Been a Long Time\07. Cortina - Ready to Go.wav
     Pre-gap length  0:00:01.74
     Peak level 99.8 %
     Track quality 100.0 %
     Test CRC AF87A4FD
     Copy CRC AF87A4FD
     Track not present in AccurateRip database
     Copy OK
Track  8
     Filename D:\Торрент\Cortina\2007 - Been a Long Time\08. Cortina - Smile Johnny.wav
     Pre-gap length  0:00:03.29
     Peak level 73.1 %
     Track quality 100.0 %
     Test CRC 9693CA7E
     Copy CRC 9693CA7E
     Track not present in AccurateRip database
     Copy OK
Track  9
     Filename D:\Торрент\Cortina\2007 - Been a Long Time\09. Cortina - Western Breeze.wav
     Peak level 98.7 %
     Track quality 100.0 %
     Test CRC 951BA20D
     Copy CRC 951BA20D
     Track not present in AccurateRip database
     Copy OK
Track 10
     Filename D:\Торрент\Cortina\2007 - Been a Long Time\10. Cortina - In the Rain.wav
     Pre-gap length  0:00:02.01
     Peak level 97.9 %
     Track quality 100.0 %
     Test CRC 6FD729D0
     Copy CRC 6FD729D0
     Track not present in AccurateRip database
     Copy OK
Track 11
     Filename D:\Торрент\Cortina\2007 - Been a Long Time\11. Cortina - Lord.wav
     Pre-gap length  0:00:09.78
     Peak level 97.9 %
     Track quality 100.0 %
     Test CRC 0E9021EE
     Copy CRC 0E9021EE
     Track not present in AccurateRip database
     Copy OK
None of the tracks are present in the AccurateRip database
No errors occurred
End of status report
Код:
REM DATE 2007
REM DISCID 800ABC0B
REM COMMENT "ExactAudioCopy v0.99pb5"
PERFORMER "Cortina"
TITLE "Been a Long Time"
FILE "01. Cortina - Been a Long Time.wav" WAVE
  TRACK 01 AUDIO
    TITLE "Been a Long Time"
    PERFORMER "Cortina"
    INDEX 01 00:00:00
  TRACK 02 AUDIO
    TITLE "Falling Star"
    PERFORMER "Cortina"
    INDEX 00 03:16:30
FILE "02. Cortina - Falling Star.wav" WAVE
    INDEX 01 00:00:00
  TRACK 03 AUDIO
    TITLE "Here I Stand"
    PERFORMER "Cortina"
    INDEX 00 04:04:12
FILE "03. Cortina - Here I Stand.wav" WAVE
    INDEX 01 00:00:00
  TRACK 04 AUDIO
    TITLE "Lift Me Up"
    PERFORMER "Cortina"
    INDEX 00 03:27:67
FILE "04. Cortina - Lift Me Up.wav" WAVE
    INDEX 01 00:00:00
  TRACK 05 AUDIO
    TITLE "This Is How I Feel"
    PERFORMER "Cortina"
    INDEX 00 04:17:01
FILE "05. Cortina - This Is How I Feel.wav" WAVE
    INDEX 01 00:00:00
  TRACK 06 AUDIO
    TITLE "Don't Leave Me"
    PERFORMER "Cortina"
    INDEX 00 03:16:01
FILE "06. Cortina - Don't Leave Me.wav" WAVE
    INDEX 01 00:00:00
  TRACK 07 AUDIO
    TITLE "Ready to Go"
    PERFORMER "Cortina"
    INDEX 00 03:55:51
FILE "07. Cortina - Ready to Go.wav" WAVE
    INDEX 01 00:00:00
  TRACK 08 AUDIO
    TITLE "Smile Johnny"
    PERFORMER "Cortina"
    INDEX 00 05:16:58
FILE "08. Cortina - Smile Johnny.wav" WAVE
    INDEX 01 00:00:00
FILE "09. Cortina - Western Breeze.wav" WAVE
  TRACK 09 AUDIO
    TITLE "Western Breeze"
    PERFORMER "Cortina"
    INDEX 01 00:00:00
  TRACK 10 AUDIO
    TITLE "In the Rain"
    PERFORMER "Cortina"
    INDEX 00 04:58:73
FILE "10. Cortina - In the Rain.wav" WAVE
    INDEX 01 00:00:00
  TRACK 11 AUDIO
    TITLE "Lord"
    PERFORMER "Cortina"
    INDEX 00 03:30:25
FILE "11. Cortina - Lord.wav" WAVE
    INDEX 01 00:00:00
#777Издатель (лейбл): Cortina Musikk/Universal
01. Sound Of A New Day - 3:51
02. Last Night - 4:06
03. Song For You - 4:38
04. Best Days - 4:19
05. Life Is Slow - 2:10
06. The Dude Abides - 3:10
07. I'll Wait - 2:39
08. A Thousand Years - 3:51
09. Do You Wanna Dance - 3:52
10. Take Me Away - 2:52
11. This Train - 3:37
Код:
Exact Audio Copy V0.99 prebeta 5 from 4. May 2009
EAC extraction logfile from 19. August 2011, 20:34
Cortina / Sound Of A New Day
Used drive  : PIONEER DVD-RW  DVR-118L   Adapter: 2  ID: 0
Read mode               : Secure
Utilize accurate stream : Yes
Defeat audio cache      : Yes
Make use of C2 pointers : No
Read offset correction                      : 6
Overread into Lead-In and Lead-Out          : No
Fill up missing offset samples with silence : Yes
Delete leading and trailing silent blocks   : No
Null samples used in CRC calculations       : Yes
Used interface                              : Native Win32 interface for Win NT & 2000
Gap handling                                : Appended to previous track
Used output format              : User Defined Encoder
Selected bitrate                : 128 kBit/s
Quality                         : High
Add ID3 tag                     : No
Command line compressor         : C:\Program Files (x86)\Exact Audio Copy\Flac\flac.exe
Additional command line options : -8 -V -T "ARTIST=%a" -T "TITLE=%t" -T "ALBUM=%g" -T "DATE=%y"
-T "TRACKNUMBER=%n" -T "GENRE=%m" -T "COMMENT=EAC FLAC -8" %s
TOC of the extracted CD
     Track |   Start  |  Length  | Start sector | End sector
    ---------------------------------------------------------
        1  |  0:00.00 |  3:51.08 |         0    |    17332
        2  |  3:51.08 |  4:05.61 |     17333    |    35768
        3  |  7:56.69 |  4:37.61 |     35769    |    56604
        4  | 12:34.55 |  4:19.00 |     56605    |    76029
        5  | 16:53.55 |  2:09.69 |     76030    |    85773
        6  | 19:03.49 |  3:09.45 |     85774    |    99993
        7  | 22:13.19 |  2:38.73 |     99994    |   111916
        8  | 24:52.17 |  3:51.25 |    111917    |   129266
        9  | 28:43.42 |  3:52.16 |    129267    |   146682
       10  | 32:35.58 |  2:52.36 |    146683    |   159618
       11  | 35:28.19 |  3:36.67 |    159619    |   175885
Track  1
     Filename D:\Торрент\Cortina\2011 - Sound Of A New Day\01. Cortina - Sound Of A New Day.wav
     Pre-gap length  0:00:02.00
     Peak level 98.8 %
     Track quality 99.9 %
     Test CRC EB1EA22E
     Copy CRC EB1EA22E
     Track not present in AccurateRip database
     Copy OK
Track  2
     Filename D:\Торрент\Cortina\2011 - Sound Of A New Day\02. Cortina - Last Night.wav
     Peak level 98.8 %
     Track quality 100.0 %
     Test CRC 67D3BB7E
     Copy CRC 67D3BB7E
     Track not present in AccurateRip database
     Copy OK
Track  3
     Filename D:\Торрент\Cortina\2011 - Sound Of A New Day\03. Cortina - Song For You.wav
     Peak level 98.8 %
     Track quality 100.0 %
     Test CRC 7409B568
     Copy CRC 7409B568
     Track not present in AccurateRip database
     Copy OK
Track  4
     Filename D:\Торрент\Cortina\2011 - Sound Of A New Day\04. Cortina - Best Days.wav
     Pre-gap length  0:00:00.69
     Peak level 98.8 %
     Track quality 99.9 %
     Test CRC F8EC5CD1
     Copy CRC F8EC5CD1
     Track not present in AccurateRip database
     Copy OK
Track  5
     Filename D:\Торрент\Cortina\2011 - Sound Of A New Day\05. Cortina - Life Is Slow.wav
     Peak level 98.8 %
     Track quality 100.0 %
     Test CRC 23F01614
     Copy CRC 23F01614
     Track not present in AccurateRip database
     Copy OK
Track  6
     Filename D:\Торрент\Cortina\2011 - Sound Of A New Day\06. Cortina - The Dude Abides.wav
     Peak level 98.8 %
     Track quality 99.9 %
     Test CRC 92E78B3A
     Copy CRC 92E78B3A
     Track not present in AccurateRip database
     Copy OK
Track  7
     Filename D:\Торрент\Cortina\2011 - Sound Of A New Day\07. Cortina - I'll Wait.wav
     Pre-gap length  0:00:02.12
     Peak level 98.8 %
     Track quality 100.0 %
     Test CRC 5B35BC3C
     Copy CRC 5B35BC3C
     Track not present in AccurateRip database
     Copy OK
Track  8
     Filename D:\Торрент\Cortina\2011 - Sound Of A New Day\08. Cortina - A Thousand Years.wav
     Peak level 98.8 %
     Track quality 100.0 %
     Test CRC 84981D5E
     Copy CRC 84981D5E
     Track not present in AccurateRip database
     Copy OK
Track  9
     Filename D:\Торрент\Cortina\2011 - Sound Of A New Day\09. Cortina - Do You Wanna Dance.wav
     Pre-gap length  0:00:00.84
     Peak level 98.8 %
     Track quality 100.0 %
     Test CRC FC313AA7
     Copy CRC FC313AA7
     Track not present in AccurateRip database
     Copy OK
Track 10
     Filename D:\Торрент\Cortina\2011 - Sound Of A New Day\10. Cortina - Take Me Away.wav
     Pre-gap length  0:00:00.76
     Peak level 98.8 %
     Track quality 100.0 %
     Test CRC 1D208450
     Copy CRC 1D208450
     Track not present in AccurateRip database
     Copy OK
Track 11
     Filename D:\Торрент\Cortina\2011 - Sound Of A New Day\11. Cortina - This Train.wav
     Peak level 98.8 %
     Track quality 100.0 %
     Test CRC 0A9D8BC7
     Copy CRC 0A9D8BC7
     Track not present in AccurateRip database
     Copy OK
None of the tracks are present in the AccurateRip database
No errors occurred
End of status report
Код:
REM GENRE Pop
REM DATE 2011
REM DISCID 8A09290B
REM COMMENT "ExactAudioCopy v0.99pb5"
PERFORMER "Cortina"
TITLE "Sound Of A New Day"
FILE "01. Cortina - Sound Of A New Day.wav" WAVE
  TRACK 01 AUDIO
    TITLE "Sound Of A New Day"
    PERFORMER "Cortina"
    INDEX 01 00:00:00
FILE "02. Cortina - Last Night.wav" WAVE
  TRACK 02 AUDIO
    TITLE "Last Night"
    PERFORMER "Cortina"
    INDEX 01 00:00:00
FILE "03. Cortina - Song For You.wav" WAVE
  TRACK 03 AUDIO
    TITLE "Song For You"
    PERFORMER "Cortina"
    INDEX 01 00:00:00
  TRACK 04 AUDIO
    TITLE "Best Days"
    PERFORMER "Cortina"
    INDEX 00 04:37:09
FILE "04. Cortina - Best Days.wav" WAVE
    INDEX 01 00:00:00
FILE "05. Cortina - Life Is Slow.wav" WAVE
  TRACK 05 AUDIO
    TITLE "Life Is Slow"
    PERFORMER "Cortina"
    INDEX 01 00:00:00
FILE "06. Cortina - The Dude Abides.wav" WAVE
  TRACK 06 AUDIO
    TITLE "The Dude Abides"
    PERFORMER "Cortina"
    INDEX 01 00:00:00
  TRACK 07 AUDIO
    TITLE "I'll Wait"
    PERFORMER "Cortina"
    INDEX 00 03:07:36
FILE "07. Cortina - I'll Wait.wav" WAVE
    INDEX 01 00:00:00
FILE "08. Cortina - A Thousand Years.wav" WAVE
  TRACK 08 AUDIO
    TITLE "A Thousand Years"
    PERFORMER "Cortina"
    INDEX 01 00:00:00
  TRACK 09 AUDIO
    TITLE "Do You Wanna Dance"
    PERFORMER "Cortina"
    INDEX 00 03:50:37
FILE "09. Cortina - Do You Wanna Dance.wav" WAVE
    INDEX 01 00:00:00
  TRACK 10 AUDIO
    TITLE "Take Me Away"
    PERFORMER "Cortina"
    INDEX 00 03:51:34
FILE "10. Cortina - Take Me Away.wav" WAVE
    INDEX 01 00:00:00
FILE "11. Cortina - This Train.wav" WAVE
  TRACK 11 AUDIO
    TITLE "This Train"
    PERFORMER "Cortina"
    INDEX 01 00:00:00
ТОЛЬКО СВОИ РИПЫ!
Правила, инструкции, FAQ!!!
Торрент  Добавлен [26 мар 2019, 18:40] Скачать торрент Магнет ссылка
Скачать торрент
[ Размер 17.45 КБ / Просмотров 1 ]

Статус
Проверен 
 
Размер  619.7 МБ
Приватный: Нет (DHT включён)
.torrent скачан  0
 


     Отправить личное сообщение
   
Страница 1 из 1
Показать сообщения за:  Поле сортировки  
Начать новую тему Ответить на тему


Сейчас этот форум просматривают: нет зарегистрированных пользователей и гости: 0


Вы не можете начинать темы
Вы не можете отвечать на сообщения
Вы не можете редактировать свои сообщения
Вы не можете удалять свои сообщения
Вы не можете добавлять вложения

Перейти:  
cron