Начать новую тему Ответить на тему
Статистика раздачи
Размер: 227.25 МБ | Добавлен: 26 мар 2019, 20:06 | Скачали: 0
Сидеров: 0  [0 байт/сек]    Личеров: 0  [0 байт/сек]
Пред. тема | След. тема 

Автор
Сообщение

СообщениеДобавлено: 26 мар 2019, 20:06 

Ответить с цитатой 

Condello - Phase 1 - 1968
Жанр: Pop-Rock
Страна-производитель диска: Spain
Год издания диска: 2007
Издатель (лейбл): RDI
Номер по каталогу: 33014
Страна: USA
Аудиокодек: FLAC (*.flac)
Тип рипа: image+.cue
Битрейт аудио: lossless
Продолжительность: 37:14
Источник (релизер): Найдено в сети
Наличие сканов в содержимом раздачи: да
Треклист:
1. Crystal Clear 3:29
2. Oh No 2:40
3. Guess I Better Go 2:34
4. Charming Sitter 2:42
5. All You Need 4:01
6. Keep It Inside 3:09
7 Dr. Tarr Professor Fether 2:49
8. The Other Side Of You 4:12
9. See What Tomorrow Brings 3:29
10. He'll Keep Waiting 2:30
11. It Don't Matter 4:43
Код:
Exact Audio Copy V1.0 beta 2 from 29. April 2011
Отчёт EAC об извлечении, выполненном 9. сентября 2011, 23:22
Condello / Phase 1
Дисковод: PIONEER BD-RW   BDR-205   Adapter: 4  ID: 0
Режим чтения                 : Достоверность
Использование точного потока : Да
Отключение кэша аудио        : Да
Использование указателей C2  : Нет
Коррекция смещения при чтении                     : 667
Способность читать области Lead-in и Lead-out     : Нет
Заполнение пропущенных сэмплов тишиной            : Да
Удаление блоков с тишиной в начале и конце        : Нет
При вычислениях CRC использовались нулевые сэмплы : Да
Интерфейс                                         : Встроенный Win32-интерфейс для Win NT/2000
Выходной формат          : Пользовательский кодировщик
Выбранный битрейт        : 128 kBit/s
Качество                 : Высокий
Добавление ID3-тега      : Нет
Утилита сжатия           : C:\Program Files\Exact Audio Copy\Flac\flac.exe
Дополнительные параметры : -V -8 -T "Date=%year%" -T "Genre=%genre%" %source%
TOC извлечённого CD
     Трек |   Старт  | Длительность | Начальный сектор | Конечный сектор
    ---------------------------------------------------------------------
       1  |  0:00.00 |    3:35.68   |           0      |      16192
       2  |  3:35.68 |    2:44.06   |       16193      |      28498
       3  |  6:19.74 |    2:37.61   |       28499      |      40334
       4  |  8:57.60 |    2:47.00   |       40335      |      52859
       5  | 11:44.60 |    4:07.02   |       52860      |      71386
       6  | 15:51.62 |    3:14.06   |       71387      |      85942
       7  | 19:05.68 |    2:53.48   |       85943      |      98965
       8  | 21:59.41 |    4:16.27   |       98966      |     118192
       9  | 26:15.68 |    3:31.68   |      118193      |     134085
      10  | 29:47.61 |    2:35.55   |      134086      |     145765
      11  | 32:23.41 |    4:50.25   |      145766      |     167540
Характеристики диапазона извлечения и сообщения об ошибках
Выбранный диапазон
     Имя файла G:\IMADGE+CUE\Condello - Phase 1.wav
     Пиковый уровень 100.0 %
     Скорость извлечения 6.9 X
     Качество диапазона 100.0 %
     CRC теста 07BBF77B
     CRC копии 07BBF77B
     Копирование... OK
Ошибок не произошло
Конец отчёта
==== Контрольная сумма отчёта BD0A6D3A79241D4DA0FADC6AD6018348276065724E7C9895EF274EDAD87A673D ====
This Arizona band was actually Mike Condello (guitar, keyboards, vocals) supported by Dennis Kenmore (drums), Bill Spooner (guitar) and Ray Trainer (bass, keyboards, flute). They released one LP titled 'Phase 1' in 1968, which includes the excellent 'The Other Side Of You' and a great version of the Mike Leander and Leon Russell penned 'Oh No'.
Condello started his professional music career in 1962 as a regular on the popular local Phoenix children's TV program, 'The Wallace & Ladmo Show'. There he wrote and performed various songs, supported mainly by Wallace (Bill Thompson) and Ladmo (Ladimir Kwiatkowski).
In 1964, Condello became a member of the joke band Hub Kapp & The Wheels, which also performed on "Wallace & Ladmo" and found modest success, releasing three 45s and even making an appearance on 'The Steve Allen Show'.
In 1967 he co-formed the pseudo-fictitious parody ensemble, Commodore Condello's Salt River Navy Band, which in addition to performing on "Wallace & Ladmo", also released two EPs. At about this time, Condello also got involved with the Superfine Dandelion, playing guitar on their song 'Ferris Wheel'
In 1968, Condello decided to get more serious and psychedelic with his music, releasing the 'Phase 1' album. In 1969, he also released two follow up 45s under the "Condello" moniker.
Condello continued working on "Wallace & Ladmo" until 1971 when he finally called it quits to dedicate more of his time as a session musician. Throughout the 70s, Mike played with several famous recording artists, including Jackson Browne, Juice Newton and the Tubes. He even played some guitar on Keith Moon's 1975 solo LP, 'Two Sides Of The Moon'.
Original issue : "Condello: Phase 1" 1968 (Scepter LP - sps-542) [stereo]
This fascinating album moves from sparkling pop to near heavy metal, almost like a compilation album by one man. Condello is an interesting figure, being connected to diverse figures like Lynn Castle and Warren S. Richardson, so it’s not surprising that his album runs the gamut. The popsike songs near the beginning of the album are the strongest tracks, but all of it is interesting and worthwhile. A neat artifact of a time when such diverse styles of music sat nicely side by side on radio, and here, on LP. Condello also released a number of 45s and EPs including the "Soggy Cereal" track of Pebbles fame.
Правила, инструкции, FAQ!!!
Торрент  Добавлен [26 мар 2019, 20:06] Скачать торрент Магнет ссылка
Скачать торрент
[ Размер 18.65 КБ / Просмотров 5 ]

Статус
Проверен 
 
Размер  227.25 МБ
Приватный: Нет (DHT включён)
.torrent скачан  0
 


     Отправить личное сообщение
   
Страница 1 из 1
Показать сообщения за:  Поле сортировки  
Начать новую тему Ответить на тему


Сейчас этот форум просматривают: нет зарегистрированных пользователей и гости: 0


Вы не можете начинать темы
Вы не можете отвечать на сообщения
Вы не можете редактировать свои сообщения
Вы не можете удалять свои сообщения
Вы не можете добавлять вложения

Перейти:  
cron