Начать новую тему Ответить на тему
Статистика раздачи
Размер: 480.22 МБ | Добавлен: 26 мар 2019, 19:52 | Скачали: 0
Сидеров: 0  [0 байт/сек]    Личеров: 0  [0 байт/сек]
Пред. тема | След. тема 

Автор
Сообщение

СообщениеДобавлено: 26 мар 2019, 19:52 

Ответить с цитатой 

Colton Dixon - A Messenger (Expanded Edition)
Жанр: Pop-Rock
Носитель: CD
Год издания: 2014
Издатель (лейбл): Sparrow Records
Номер по каталогу: B001973302
Страна: US
Аудиокодек: FLAC (*.flac)
Тип рипа: tracks+.cue
Битрейт аудио: lossless
Продолжительность: 1:06:40
Источник (релизер): what.cd (rocker1)
Наличие сканов в содержимом раздачи: нет
Треклист:
01. Intro (0:48)
02. Noise (3:04)
03. I'll Be The Light (3:25)
04. You Are (3:23)
05. Never Gone (3:34)
06. Love Has Come For Me (3:19)
07. Scars (4:50)
08. Rise (3:22)
09. Where My Heart Goes (3:39)
10. This Is Who I Am (3:44)
11. In And Out Of Time (4:07)
12. Let Them See You (4:15)
13. Never Gone (Capital Kings Remix) (4:32)
14. Love Has Come For Me (Fabmusic Remix) (3:44)
15. In And Out Of Time (Phenomenon Remix) (5:29)
16. You Are (David Thulin Remix) (3:49)
17. The Shape Of Your Love (3:50)
18. Wake Up (3:45)
Код:
X Lossless Decoder version 20131102 (145.0)
XLD extraction logfile from 2014-02-18 08:57:33 -0500
Colton Dixon / A Messenger (Expanded Edition)
Used drive : OPTIARC DVD RW AD-5670S (revision 2AHH)
Media type : Pressed CD
Ripper mode             : XLD Secure Ripper
Disable audio cache     : OK for the drive with a cache less than 1375KiB
Make use of C2 pointers : NO
Read offset correction  : 48
Max retry count         : 20
Gap status              : Analyzed, Appended (except HTOA)
TOC of the extracted CD
     Track |   Start  |  Length  | Start sector | End sector
    ---------------------------------------------------------
        1  | 00:00:00 | 00:48:07 |         0    |     3606
        2  | 00:48:07 | 03:04:28 |      3607    |    17434
        3  | 03:52:35 | 03:25:20 |     17435    |    32829
        4  | 07:17:55 | 03:22:64 |     32830    |    48043
        5  | 10:40:44 | 03:34:21 |     48044    |    64114
        6  | 14:14:65 | 03:19:34 |     64115    |    79073
        7  | 17:34:24 | 04:50:37 |     79074    |   100860
        8  | 22:24:61 | 03:21:44 |    100861    |   115979
        9  | 25:46:30 | 03:39:08 |    115980    |   132412
       10  | 29:25:38 | 03:43:52 |    132413    |   149189
       11  | 33:09:15 | 04:07:07 |    149190    |   167721
       12  | 37:16:22 | 04:15:25 |    167722    |   186871
       13  | 41:31:47 | 04:31:62 |    186872    |   207258
       14  | 46:03:34 | 03:44:28 |    207259    |   224086
       15  | 49:47:62 | 05:28:40 |    224087    |   248726
       16  | 55:16:27 | 03:49:10 |    248727    |   265911
       17  | 59:05:37 | 03:50:07 |    265912    |   283168
       18  | 62:55:44 | 03:44:46 |    283169    |   300014
AccurateRip Summary
    Disc not found in AccurateRip DB.
All Tracks
    Album gain               : -10.61 dB
    Peak                     : 1.000000
    Statistics
        Read error                           : 0
        Jitter error (maybe fixed)           : 0
        Retry sector count                   : 0
        Damaged sector count                 : 0
Track 01
    Filename : /Users/home/Music/Temp/Colton Dixon - A Messenger (Expanded Edition) (2014) [FLAC]/01 Intro.flac
    Pre-gap length : 00:02:00
    Track gain               : -2.17 dB
    Peak                     : 0.973083
    CRC32 hash (test run)    : 81038A8D
    CRC32 hash               : 81038A8D
    CRC32 hash (skip zero)   : 456A44E1
    AccurateRip v1 signature : 7F1F048F
    AccurateRip v2 signature : ED7C1655
        ->Track not present in AccurateRip database.
    Statistics
        Read error                           : 0
        Jitter error (maybe fixed)           : 0
        Retry sector count                   : 0
        Damaged sector count                 : 0
Track 02
    Filename : /Users/home/Music/Temp/Colton Dixon - A Messenger (Expanded Edition) (2014) [FLAC]/02 Noise.flac
    Track gain               : -10.65 dB
    Peak                     : 0.988708
    CRC32 hash (test run)    : 978332AE
    CRC32 hash               : 978332AE
    CRC32 hash (skip zero)   : FFA7DB1A
    AccurateRip v1 signature : 2FC6BAFE
    AccurateRip v2 signature : 7C798318
        ->Track not present in AccurateRip database.
    Statistics
        Read error                           : 0
        Jitter error (maybe fixed)           : 0
        Retry sector count                   : 0
        Damaged sector count                 : 0
Track 03
    Filename : /Users/home/Music/Temp/Colton Dixon - A Messenger (Expanded Edition) (2014) [FLAC]/03 I'll Be The Light.flac
    Track gain               : -9.82 dB
    Peak                     : 0.988708
    CRC32 hash (test run)    : 97E453FE
    CRC32 hash               : 97E453FE
    CRC32 hash (skip zero)   : DF8906EE
    AccurateRip v1 signature : EC48462B
    AccurateRip v2 signature : 2B2485A0
        ->Track not present in AccurateRip database.
    Statistics
        Read error                           : 0
        Jitter error (maybe fixed)           : 0
        Retry sector count                   : 0
        Damaged sector count                 : 0
Track 04
    Filename : /Users/home/Music/Temp/Colton Dixon - A Messenger (Expanded Edition) (2014) [FLAC]/04 You Are.flac
    Track gain               : -10.94 dB
    Peak                     : 0.988708
    CRC32 hash (test run)    : 6F03C259
    CRC32 hash               : 6F03C259
    CRC32 hash (skip zero)   : 1215B65D
    AccurateRip v1 signature : B094C72E
    AccurateRip v2 signature : 1F15E80A
        ->Track not present in AccurateRip database.
    Statistics
        Read error                           : 0
        Jitter error (maybe fixed)           : 0
        Retry sector count                   : 0
        Damaged sector count                 : 0
Track 05
    Filename : /Users/home/Music/Temp/Colton Dixon - A Messenger (Expanded Edition) (2014) [FLAC]/05 Never Gone.flac
    Track gain               : -11.41 dB
    Peak                     : 0.988708
    CRC32 hash (test run)    : 9296E06B
    CRC32 hash               : 9296E06B
    CRC32 hash (skip zero)   : 6AD87609
    AccurateRip v1 signature : 02F2956E
    AccurateRip v2 signature : D6CBAD64
        ->Track not present in AccurateRip database.
    Statistics
        Read error                           : 0
        Jitter error (maybe fixed)           : 0
        Retry sector count                   : 0
        Damaged sector count                 : 0
Track 06
    Filename : /Users/home/Music/Temp/Colton Dixon - A Messenger (Expanded Edition) (2014) [FLAC]/06 Love Has Come For Me.flac
    Track gain               : -10.94 dB
    Peak                     : 0.988739
    CRC32 hash (test run)    : AF944213
    CRC32 hash               : AF944213
    CRC32 hash (skip zero)   : 2CEF2E5D
    AccurateRip v1 signature : C84CD597
    AccurateRip v2 signature : A1D9F31F
        ->Track not present in AccurateRip database.
    Statistics
        Read error                           : 0
        Jitter error (maybe fixed)           : 0
        Retry sector count                   : 0
        Damaged sector count                 : 0
Track 07
    Filename : /Users/home/Music/Temp/Colton Dixon - A Messenger (Expanded Edition) (2014) [FLAC]/07 Scars.flac
    Track gain               : -9.59 dB
    Peak                     : 0.988647
    CRC32 hash (test run)    : A079403D
    CRC32 hash               : A079403D
    CRC32 hash (skip zero)   : E2013578
    AccurateRip v1 signature : 1D6027DC
    AccurateRip v2 signature : 4A52DBF6
        ->Track not present in AccurateRip database.
    Statistics
        Read error                           : 0
        Jitter error (maybe fixed)           : 0
        Retry sector count                   : 0
        Damaged sector count                 : 0
Track 08
    Filename : /Users/home/Music/Temp/Colton Dixon - A Messenger (Expanded Edition) (2014) [FLAC]/08 Rise.flac
    Track gain               : -10.21 dB
    Peak                     : 0.988708
    CRC32 hash (test run)    : AA7906BB
    CRC32 hash               : AA7906BB
    CRC32 hash (skip zero)   : 90930D84
    AccurateRip v1 signature : 8D4D68A9
    AccurateRip v2 signature : AC133C2D
        ->Track not present in AccurateRip database.
    Statistics
        Read error                           : 0
        Jitter error (maybe fixed)           : 0
        Retry sector count                   : 0
        Damaged sector count                 : 0
Track 09
    Filename : /Users/home/Music/Temp/Colton Dixon - A Messenger (Expanded Edition) (2014) [FLAC]/09 Where My Heart Goes.flac
    Track gain               : -10.53 dB
    Peak                     : 0.997040
    CRC32 hash (test run)    : 0F67F19F
    CRC32 hash               : 0F67F19F
    CRC32 hash (skip zero)   : 4351C29E
    AccurateRip v1 signature : 1C0465F8
    AccurateRip v2 signature : 81D17CF7
        ->Track not present in AccurateRip database.
    Statistics
        Read error                           : 0
        Jitter error (maybe fixed)           : 0
        Retry sector count                   : 0
        Damaged sector count                 : 0
Track 10
    Filename : /Users/home/Music/Temp/Colton Dixon - A Messenger (Expanded Edition) (2014) [FLAC]/10 This Is Who I Am.flac
    Track gain               : -11.00 dB
    Peak                     : 0.988708
    CRC32 hash (test run)    : D50657A7
    CRC32 hash               : D50657A7
    CRC32 hash (skip zero)   : AC108AFC
    AccurateRip v1 signature : FB0B3CA6
    AccurateRip v2 signature : 9692B294
        ->Track not present in AccurateRip database.
    Statistics
        Read error                           : 0
        Jitter error (maybe fixed)           : 0
        Retry sector count                   : 0
        Damaged sector count                 : 0
Track 11
    Filename : /Users/home/Music/Temp/Colton Dixon - A Messenger (Expanded Edition) (2014) [FLAC]/11 In And Out Of Time.flac
    Track gain               : -11.37 dB
    Peak                     : 0.988647
    CRC32 hash (test run)    : 09821326
    CRC32 hash               : 09821326
    CRC32 hash (skip zero)   : 92322BB5
    AccurateRip v1 signature : 86D947A0
    AccurateRip v2 signature : 500666EB
        ->Track not present in AccurateRip database.
    Statistics
        Read error                           : 0
        Jitter error (maybe fixed)           : 0
        Retry sector count                   : 0
        Damaged sector count                 : 0
Track 12
    Filename : /Users/home/Music/Temp/Colton Dixon - A Messenger (Expanded Edition) (2014) [FLAC]/12 Let Them See You.flac
    Track gain               : -7.17 dB
    Peak                     : 0.988647
    CRC32 hash (test run)    : 45FF772F
    CRC32 hash               : 45FF772F
    CRC32 hash (skip zero)   : BE80CB3B
    AccurateRip v1 signature : 585200A0
    AccurateRip v2 signature : 590D608A
        ->Track not present in AccurateRip database.
    Statistics
        Read error                           : 0
        Jitter error (maybe fixed)           : 0
        Retry sector count                   : 0
        Damaged sector count                 : 0
Track 13
    Filename : /Users/home/Music/Temp/Colton Dixon - A Messenger (Expanded Edition) (2014) [FLAC]/13 Never Gone (Capital Kings Remix).flac
    Track gain               : -9.66 dB
    Peak                     : 1.000000
    CRC32 hash (test run)    : 9FF1BAC0
    CRC32 hash               : 9FF1BAC0
    CRC32 hash (skip zero)   : 0A5C3268
    AccurateRip v1 signature : F1CE58C4
    AccurateRip v2 signature : 363AA45E
        ->Track not present in AccurateRip database.
    Statistics
        Read error                           : 0
        Jitter error (maybe fixed)           : 0
        Retry sector count                   : 0
        Damaged sector count                 : 0
Track 14
    Filename : /Users/home/Music/Temp/Colton Dixon - A Messenger (Expanded Edition) (2014) [FLAC]/14 Love Has Come For Me (Fabmusic Remix).flac
    Track gain               : -10.43 dB
    Peak                     : 0.998657
    CRC32 hash (test run)    : 55A66FDF
    CRC32 hash               : 55A66FDF
    CRC32 hash (skip zero)   : CE4CFDE0
    AccurateRip v1 signature : 6E2C92A1
    AccurateRip v2 signature : 094CE8C2
        ->Track not present in AccurateRip database.
    Statistics
        Read error                           : 0
        Jitter error (maybe fixed)           : 0
        Retry sector count                   : 0
        Damaged sector count                 : 0
Track 15
    Filename : /Users/home/Music/Temp/Colton Dixon - A Messenger (Expanded Edition) (2014) [FLAC]/15 In And Out Of Time (Phenomenon Remix).flac
    Track gain               : -10.29 dB
    Peak                     : 0.977570
    CRC32 hash (test run)    : 76E28384
    CRC32 hash               : 76E28384
    CRC32 hash (skip zero)   : 738F46A4
    AccurateRip v1 signature : 1D976236
    AccurateRip v2 signature : 5735057F
        ->Track not present in AccurateRip database.
    Statistics
        Read error                           : 0
        Jitter error (maybe fixed)           : 0
        Retry sector count                   : 0
        Damaged sector count                 : 0
Track 16
    Filename : /Users/home/Music/Temp/Colton Dixon - A Messenger (Expanded Edition) (2014) [FLAC]/16 You Are (David Thulin Remix).flac
    Track gain               : -10.14 dB
    Peak                     : 0.987274
    CRC32 hash (test run)    : 674919C0
    CRC32 hash               : 674919C0
    CRC32 hash (skip zero)   : 03AB0130
    AccurateRip v1 signature : B18501E7
    AccurateRip v2 signature : 925ECD5A
        ->Track not present in AccurateRip database.
    Statistics
        Read error                           : 0
        Jitter error (maybe fixed)           : 0
        Retry sector count                   : 0
        Damaged sector count                 : 0
Track 17
    Filename : /Users/home/Music/Temp/Colton Dixon - A Messenger (Expanded Edition) (2014) [FLAC]/17 The Shape Of Your Love.flac
    Track gain               : -9.27 dB
    Peak                     : 0.988678
    CRC32 hash (test run)    : 70D1C9BE
    CRC32 hash               : 70D1C9BE
    CRC32 hash (skip zero)   : 0EBEA127
    AccurateRip v1 signature : 14F4453F
    AccurateRip v2 signature : 24967524
        ->Track not present in AccurateRip database.
    Statistics
        Read error                           : 0
        Jitter error (maybe fixed)           : 0
        Retry sector count                   : 0
        Damaged sector count                 : 0
Track 18
    Filename : /Users/home/Music/Temp/Colton Dixon - A Messenger (Expanded Edition) (2014) [FLAC]/18 Wake Up.flac
    Track gain               : -10.76 dB
    Peak                     : 0.988770
    CRC32 hash (test run)    : A3C970AF
    CRC32 hash               : A3C970AF
    CRC32 hash (skip zero)   : 5B02B6F4
    AccurateRip v1 signature : E446327C
    AccurateRip v2 signature : 44773BD1
        ->Track not present in AccurateRip database.
    Statistics
        Read error                           : 0
        Jitter error (maybe fixed)           : 0
        Retry sector count                   : 0
        Damaged sector count                 : 0
No errors occurred
End of status report
-----BEGIN XLD SIGNATURE-----
rSlCOsiC77cjjqe_yEJwo3XIvzZgP1K8G93SzB5NSFU5aSWRHq2AxoNAT5pyIJUZ8ASGCw3_Rrn6lNZ.I12Qb.o83AacNNbERuURvba
-----END XLD SIGNATURE-----
Код:
TITLE "A Messenger (Expanded Edition)"
PERFORMER "Colton Dixon"
CATALOG 0602537549917
REM GENRE "Religious"
REM DATE "2014"
REM DISCNUMBER 1
REM TOTALDISCS 1
REM DISCID 200FA012
REM REPLAYGAIN_ALBUM_GAIN -10.61 dB
REM REPLAYGAIN_ALBUM_PEAK 1.000000
FILE "01 Intro.flac" WAVE
  TRACK 01 AUDIO
    TITLE "Intro"
    ISRC QMTM61200541
    REM REPLAYGAIN_TRACK_GAIN -2.17 dB
    REM REPLAYGAIN_TRACK_PEAK 0.973083
    INDEX 01 00:00:00
FILE "02 Noise.flac" WAVE
  TRACK 02 AUDIO
    TITLE "Noise"
    ISRC QMTM61200528
    REM REPLAYGAIN_TRACK_GAIN -10.65 dB
    REM REPLAYGAIN_TRACK_PEAK 0.988708
    INDEX 01 00:00:00
FILE "03 I'll Be The Light.flac" WAVE
  TRACK 03 AUDIO
    TITLE "I'll Be The Light"
    ISRC QMTM61200529
    REM REPLAYGAIN_TRACK_GAIN -9.82 dB
    REM REPLAYGAIN_TRACK_PEAK 0.988708
    INDEX 01 00:00:00
FILE "04 You Are.flac" WAVE
  TRACK 04 AUDIO
    TITLE "You Are"
    ISRC QMTM61200530
    REM REPLAYGAIN_TRACK_GAIN -10.94 dB
    REM REPLAYGAIN_TRACK_PEAK 0.988708
    INDEX 01 00:00:00
FILE "05 Never Gone.flac" WAVE
  TRACK 05 AUDIO
    TITLE "Never Gone"
    ISRC QMTM61200531
    REM REPLAYGAIN_TRACK_GAIN -11.41 dB
    REM REPLAYGAIN_TRACK_PEAK 0.988708
    INDEX 01 00:00:00
FILE "06 Love Has Come For Me.flac" WAVE
  TRACK 06 AUDIO
    TITLE "Love Has Come For Me"
    ISRC QMTM61200532
    REM REPLAYGAIN_TRACK_GAIN -10.94 dB
    REM REPLAYGAIN_TRACK_PEAK 0.988739
    INDEX 01 00:00:00
FILE "07 Scars.flac" WAVE
  TRACK 07 AUDIO
    TITLE "Scars"
    ISRC QMTM61200533
    REM REPLAYGAIN_TRACK_GAIN -9.59 dB
    REM REPLAYGAIN_TRACK_PEAK 0.988647
    INDEX 01 00:00:00
FILE "08 Rise.flac" WAVE
  TRACK 08 AUDIO
    TITLE "Rise"
    ISRC QMTM61200539
    REM REPLAYGAIN_TRACK_GAIN -10.21 dB
    REM REPLAYGAIN_TRACK_PEAK 0.988708
    INDEX 01 00:00:00
FILE "09 Where My Heart Goes.flac" WAVE
  TRACK 09 AUDIO
    TITLE "Where My Heart Goes"
    ISRC QMTM61200535
    REM REPLAYGAIN_TRACK_GAIN -10.53 dB
    REM REPLAYGAIN_TRACK_PEAK 0.997040
    INDEX 01 00:00:00
FILE "10 This Is Who I Am.flac" WAVE
  TRACK 10 AUDIO
    TITLE "This Is Who I Am"
    ISRC QMTM61200536
    REM REPLAYGAIN_TRACK_GAIN -11.00 dB
    REM REPLAYGAIN_TRACK_PEAK 0.988708
    INDEX 01 00:00:00
FILE "11 In And Out Of Time.flac" WAVE
  TRACK 11 AUDIO
    TITLE "In And Out Of Time"
    ISRC QMTM61200537
    REM REPLAYGAIN_TRACK_GAIN -11.37 dB
    REM REPLAYGAIN_TRACK_PEAK 0.988647
    INDEX 01 00:00:00
FILE "12 Let Them See You.flac" WAVE
  TRACK 12 AUDIO
    TITLE "Let Them See You"
    ISRC QMTM61200538
    REM REPLAYGAIN_TRACK_GAIN -7.17 dB
    REM REPLAYGAIN_TRACK_PEAK 0.988647
    INDEX 01 00:00:00
FILE "13 Never Gone (Capital Kings Remix).flac" WAVE
  TRACK 13 AUDIO
    TITLE "Never Gone (Capital Kings Remix)"
    ISRC QMTM61300464
    REM REPLAYGAIN_TRACK_GAIN -9.66 dB
    REM REPLAYGAIN_TRACK_PEAK 1.000000
    INDEX 01 00:00:00
FILE "14 Love Has Come For Me (Fabmusic Remix).flac" WAVE
  TRACK 14 AUDIO
    TITLE "Love Has Come For Me (Fabmusic Remix)"
    ISRC QMTM61300463
    REM REPLAYGAIN_TRACK_GAIN -10.43 dB
    REM REPLAYGAIN_TRACK_PEAK 0.998657
    INDEX 01 00:00:00
FILE "15 In And Out Of Time (Phenomenon Remix).flac" WAVE
  TRACK 15 AUDIO
    TITLE "In And Out Of Time (Phenomenon Remix)"
    ISRC QMTM61300465
    REM REPLAYGAIN_TRACK_GAIN -10.29 dB
    REM REPLAYGAIN_TRACK_PEAK 0.977570
    INDEX 01 00:00:00
FILE "16 You Are (David Thulin Remix).flac" WAVE
  TRACK 16 AUDIO
    TITLE "You Are (David Thulin Remix)"
    ISRC QMTM61300466
    REM REPLAYGAIN_TRACK_GAIN -10.14 dB
    REM REPLAYGAIN_TRACK_PEAK 0.987274
    INDEX 01 00:00:00
FILE "17 The Shape Of Your Love.flac" WAVE
  TRACK 17 AUDIO
    TITLE "The Shape Of Your Love"
    ISRC QMTM61200534
    REM REPLAYGAIN_TRACK_GAIN -9.27 dB
    REM REPLAYGAIN_TRACK_PEAK 0.988678
    INDEX 01 00:00:00
FILE "18 Wake Up.flac" WAVE
  TRACK 18 AUDIO
    TITLE "Wake Up"
    ISRC QMTM61200540
    REM REPLAYGAIN_TRACK_GAIN -10.76 dB
    REM REPLAYGAIN_TRACK_PEAK 0.988770
    INDEX 01 00:00:00
Код:
AUDIOCHECKER v2.0 beta (build 457) - by Dester - opdester@freemail.hu
~~~~~~~~~~~~~~~~~~~~~~~~~~~~~~~~~~
-=== DO NOT EDIT THIS FILE! ===-
Path: ...\2014 - A Messenger (Expanded Edition)
01 -=- 01 Intro.flac -=- CDDA (100%)
02 -=- 02 Noise.flac -=- CDDA (100%)
03 -=- 03 I'll Be The Light.flac -=- CDDA (100%)
04 -=- 04 You Are.flac -=- CDDA (100%)
05 -=- 05 Never Gone.flac -=- CDDA (100%)
06 -=- 06 Love Has Come For Me.flac -=- CDDA (100%)
07 -=- 07 Scars.flac -=- CDDA (100%)
08 -=- 08 Rise.flac -=- CDDA (100%)
09 -=- 09 Where My Heart Goes.flac -=- CDDA (100%)
10 -=- 10 This Is Who I Am.flac -=- CDDA (100%)
11 -=- 11 In And Out Of Time.flac -=- CDDA (100%)
12 -=- 12 Let Them See You.flac -=- CDDA (100%)
13 -=- 13 Never Gone (Capital Kings Remix).flac -=- CDDA (99%)
14 -=- 14 Love Has Come For Me (Fabmusic Remix).flac -=- CDDA (100%)
15 -=- 15 In And Out Of Time (Phenomenon Remix).flac -=- CDDA (100%)
16 -=- 16 You Are (David Thulin Remix).flac -=- CDDA (100%)
17 -=- 17 The Shape Of Your Love.flac -=- CDDA (100%)
18 -=- 18 Wake Up.flac -=- CDDA (100%)
Summary 99,94% CDDA
19537668


Правила, инструкции, FAQ!!!
Торрент  Добавлен [26 мар 2019, 19:52] Скачать торрент Магнет ссылка
Скачать торрент
[ Размер 40.12 КБ / Просмотров 1 ]

Статус
Проверен 
 
Размер  480.22 МБ
Приватный: Нет (DHT включён)
.torrent скачан  0
 


     Отправить личное сообщение
   
Страница 1 из 1
Показать сообщения за:  Поле сортировки  
Начать новую тему Ответить на тему


Сейчас этот форум просматривают: нет зарегистрированных пользователей и гости: 0


Вы не можете начинать темы
Вы не можете отвечать на сообщения
Вы не можете редактировать свои сообщения
Вы не можете удалять свои сообщения
Вы не можете добавлять вложения

Перейти:  
cron