Начать новую тему Ответить на тему
Статистика раздачи
Размер: 497.19 МБ | Добавлен: 26 мар 2019, 20:31 | Скачали: 0
Сидеров: 0  [0 байт/сек]    Личеров: 0  [0 байт/сек]
Пред. тема | След. тема 

Автор
Сообщение

СообщениеДобавлено: 26 мар 2019, 20:31 

Ответить с цитатой 

Colin Hay – Transcendental Highway
Жанр: Pop Rock
Год издания: 1998
Издатель (лейбл): Hypertension Music
Номер по каталогу: HYCD 298 174
Страна исполнителя: Australia
Аудиокодек: FLAC (*.flac)
Тип рипа: image+.cue
Битрейт аудио: lossless
Продолжительность: 58:43
Rip by flac jacket
Наличие сканов в содержимом раздачи: да
Треклист:
01. Transcendental Highway (5:48)
02. Don't Believe You Anymore (3:56)
03. My Brilliant Feat (5:49)
04. Goodbye My Red Rose (3:32)
05. If I Go (4:28)
06. I'm Doing Fine (4:59)
07. Wash It All Away (3:24)
08. Cactus (4:43)
09. Death Row Conversation (4:56)
10. I'll Leave The Light On (4:39)
11. Freedom Calling (5:04)
12. I Just Don't Think I'll Ever Get Over You (7:23)
 
Код:
Exact Audio Copy V1.0 beta 2 from 29. April 2011
EAC extraction logfile from 22. December 2012, 13:15
Colin Hay / Transcendental Highway
Used drive  : HL-DT-STDVDRAM GH60N   Adapter: 0  ID: 1
Read mode               : Secure
Utilize accurate stream : Yes
Defeat audio cache      : Yes
Make use of C2 pointers : No
Read offset correction                      : 667
Overread into Lead-In and Lead-Out          : No
Fill up missing offset samples with silence : Yes
Delete leading and trailing silent blocks   : No
Null samples used in CRC calculations       : Yes
Used interface                              : Native Win32 interface for Win NT & 2000
Used output format              : User Defined Encoder
Selected bitrate                : 1024 kBit/s
Quality                         : High
Add ID3 tag                     : No
Command line compressor         : C:\Program Files (x86)\Exact Audio Copy\Flac\flac.exe
Additional command line options : -V -5 -T "artist=%albumartist%" -T "title=%title%" -T "album=%albumtitle%" -T "date=%year%" -T "genre=%genre%" -T "tracknumber=%tracknr%" %source%
TOC of the extracted CD
     Track |   Start  |  Length  | Start sector | End sector
    ---------------------------------------------------------
        1  |  0:00.00 |  5:48.37 |         0    |    26136
        2  |  5:48.37 |  3:56.13 |     26137    |    43849
        3  |  9:44.50 |  5:48.52 |     43850    |    70001
        4  | 15:33.27 |  3:32.05 |     70002    |    85906
        5  | 19:05.32 |  4:27.40 |     85907    |   105971
        6  | 23:32.72 |  4:59.00 |    105972    |   128396
        7  | 28:31.72 |  3:24.13 |    128397    |   143709
        8  | 31:56.10 |  4:43.32 |    143710    |   164966
        9  | 36:39.42 |  4:55.63 |    164967    |   187154
       10  | 41:35.30 |  4:39.25 |    187155    |   208104
       11  | 46:14.55 |  5:04.27 |    208105    |   230931
       12  | 51:19.07 |  7:23.33 |    230932    |   264189
Range status and errors
Selected range
     Filename C:\EAC\Colin Hay - (1998) Transcendental Highway\Colin Hay - Transcendental Highway.wav
     Peak level 98.8 %
     Extraction speed 2.1 X
     Range quality 99.9 %
     Test CRC FF9596B0
     Copy CRC FF9596B0
     Copy OK
No errors occurred
AccurateRip summary
Track  1  accurately ripped (confidence 5)  [B4A948E2]  (AR v1)
Track  2  accurately ripped (confidence 5)  [EB298BDE]  (AR v1)
Track  3  accurately ripped (confidence 5)  [9D913386]  (AR v1)
Track  4  accurately ripped (confidence 5)  [488EE80E]  (AR v1)
Track  5  accurately ripped (confidence 5)  [57AA1E0F]  (AR v1)
Track  6  accurately ripped (confidence 5)  [F038795E]  (AR v1)
Track  7  accurately ripped (confidence 5)  [3B6BC88D]  (AR v1)
Track  8  accurately ripped (confidence 5)  [4C18E357]  (AR v1)
Track  9  accurately ripped (confidence 5)  [29A31EC9]  (AR v1)
Track 10  accurately ripped (confidence 5)  [4BB2AD11]  (AR v1)
Track 11  accurately ripped (confidence 5)  [A3B5E58C]  (AR v1)
Track 12  accurately ripped (confidence 5)  [0B519F2D]  (AR v1)
All tracks accurately ripped
End of status report
==== Log checksum B0C423191472A85F1ABB75F60680BC5F983EDBE6057C1B5488A8A5B24563D471 ====
Правила, инструкции, FAQ!!!
Торрент  Добавлен [26 мар 2019, 20:31] Скачать торрент Магнет ссылка
Скачать торрент
[ Размер 20.38 КБ / Просмотров 0 ]

Статус
Проверен 
 
Размер  497.19 МБ
Приватный: Нет (DHT включён)
.torrent скачан  0
 


     Отправить личное сообщение
   
Страница 1 из 1
Показать сообщения за:  Поле сортировки  
Начать новую тему Ответить на тему


Сейчас этот форум просматривают: нет зарегистрированных пользователей и гости: 0


Вы не можете начинать темы
Вы не можете отвечать на сообщения
Вы не можете редактировать свои сообщения
Вы не можете удалять свои сообщения
Вы не можете добавлять вложения

Перейти:  
cron