Начать новую тему Ответить на тему
Статистика раздачи
Размер: 327.89 МБ | Добавлен: 26 мар 2019, 20:48 | Скачали: 0
Сидеров: 0  [0 байт/сек]    Личеров: 0  [0 байт/сек]
Пред. тема | След. тема 

Автор
Сообщение

СообщениеДобавлено: 26 мар 2019, 20:48 

Ответить с цитатой 

Cock Robin / First Love/Last Rites
Жанр: Pop/Rock
Носитель: CD
Страна-производитель диска (релиза): Austria
Год издания: 1989
Издатель (лейбл): CBS Records
Номер по каталогу: 465943 2
Страна исполнителя (группы): USA
Аудиокодек: FLAC (*.flac)
Тип рипа: image+.cue
Битрейт аудио: lossless
Продолжительность: 00:44:28
Источник (релизер): Own CD & Rip
Наличие сканов в содержимом раздачи: да

Треклист:
01. Stumble And Fall
02. Straighter Line
03. Win Or Lose
04. One Joy Bang
05. For Experience Sake
06. Hunting Down A Killer
07. Any More Than I Could Understand
08. My First Confession
09. Manzanar
10. Worlds Apart

Код:
Exact Audio Copy V1.1 from 23. June 2015
EAC extraction logfile from 9. January 2016, 15:34
Cock Robin / First Love/Last Rites
Used drive  : hp      DVDRAM GT31L   Adapter: 1  ID: 0
Read mode               : Secure
Utilize accurate stream : Yes
Defeat audio cache      : Yes
Make use of C2 pointers : No
Read offset correction                      : 103
Overread into Lead-In and Lead-Out          : No
Fill up missing offset samples with silence : Yes
Delete leading and trailing silent blocks   : No
Null samples used in CRC calculations       : Yes
Used interface                              : Native Win32 interface for Win NT & 2000
Used output format              : User Defined Encoder
Selected bitrate                : 1024 kBit/s
Quality                         : High
Add ID3 tag                     : Yes
Command line compressor         : C:\Program Files (x86)\Exact Audio Copy\Flac\flac.exe
Additional command line options : -V -8 -T "Date=%year%" -T "Genre=%genre%" %source%
TOC of the extracted CD
     Track |   Start  |  Length  | Start sector | End sector
    ---------------------------------------------------------
        1  |  0:00.00 |  4:41.07 |         0    |    21081
        2  |  4:41.07 |  4:28.05 |     21082    |    41186
        3  |  9:09.12 |  3:46.68 |     41187    |    58204
        4  | 12:56.05 |  4:10.42 |     58205    |    76996
        5  | 17:06.47 |  4:39.40 |     76997    |    97961
        6  | 21:46.12 |  4:22.43 |     97962    |   117654
        7  | 26:08.55 |  3:54.50 |    117655    |   135254
        8  | 30:03.30 |  4:37.62 |    135255    |   156091
        9  | 34:41.17 |  3:40.28 |    156092    |   172619
       10  | 38:21.45 |  6:05.32 |    172620    |   200026
Range status and errors
Selected range
     Filename E:\Rips\Cock Robin - First Love-Last Rites.wav
     Peak level 99.7 %
     Extraction speed 2.0 X
     Range quality 100.0 %
     Test CRC 13A6FC8F
     Copy CRC 13A6FC8F
     Copy OK
No errors occurred
AccurateRip summary
Track  1  accurately ripped (confidence 51)  [7BF5CA04]  (AR v2)
Track  2  accurately ripped (confidence 51)  [8A2F108C]  (AR v2)
Track  3  accurately ripped (confidence 51)  [42EC4874]  (AR v2)
Track  4  accurately ripped (confidence 51)  [BBBECD90]  (AR v2)
Track  5  accurately ripped (confidence 51)  [771D93F1]  (AR v2)
Track  6  accurately ripped (confidence 50)  [595E3E41]  (AR v2)
Track  7  accurately ripped (confidence 49)  [3215B44A]  (AR v2)
Track  8  accurately ripped (confidence 50)  [CF55E292]  (AR v2)
Track  9  accurately ripped (confidence 50)  [AC43A337]  (AR v2)
Track 10  accurately ripped (confidence 51)  [FA3F58EF]  (AR v2)
All tracks accurately ripped
End of status report
---- CUETools DB Plugin V2.1.6
[CTDB TOCID: u52aSVfDOlFz9RaKLAAJ8LxEzps-] found
Submit result: u52aSVfDOlFz9RaKLAAJ8LxEzps- has been confirmed
Track | CTDB Status
  1   | (62/62) Accurately ripped
  2   | (62/62) Accurately ripped
  3   | (62/62) Accurately ripped
  4   | (62/62) Accurately ripped
  5   | (62/62) Accurately ripped
  6   | (62/62) Accurately ripped
  7   | (61/62) Accurately ripped
  8   | (62/62) Accurately ripped
  9   | (61/62) Accurately ripped
 10   | (61/62) Accurately ripped
==== Log checksum 88DFD6986BB0C53CFBA27A1DB0B23547B47CCC8C28FFA34B6C662765E4E12F16 ====
Код:
[CUETools log; Date: 13.01.2016 17:15:40; Version: 2.1.5]
[CTDB TOCID: u52aSVfDOlFz9RaKLAAJ8LxEzps-] found.
Track | CTDB Status
  1   | (65/65) Accurately ripped
  2   | (65/65) Accurately ripped
  3   | (65/65) Accurately ripped
  4   | (65/65) Accurately ripped
  5   | (65/65) Accurately ripped
  6   | (65/65) Accurately ripped
  7   | (64/65) Accurately ripped
  8   | (65/65) Accurately ripped
  9   | (64/65) Accurately ripped
 10   | (64/65) Accurately ripped
[AccurateRip ID: 00106f5a-008359fd-770a6b0a] found.
Track   [  CRC   |   V2   ] Status
 01     [bb0a1382|7bf5ca04] (40+51/93) Accurately ripped
 02     [58fd4d93|8a2f108c] (41+51/94) Accurately ripped
 03     [049eb918|42ec4874] (42+51/95) Accurately ripped
 04     [88f8a0b9|bbbecd90] (41+51/94) Accurately ripped
 05     [a46e62b6|771d93f1] (42+51/95) Accurately ripped
 06     [8b7220f7|595e3e41] (41+50/93) Accurately ripped
 07     [d265671e|3215b44a] (42+49/93) Accurately ripped
 08     [04776eb4|cf55e292] (42+50/94) Accurately ripped
 09     [aba7cf30|ac43a337] (42+50/94) Accurately ripped
 10     [2802114b|fa3f58ef] (42+51/95) Accurately ripped
Offsetted by -272:
 01     [e37e7172] (02/93) Accurately ripped
 02     [ffb59f47] (02/94) Accurately ripped
 03     [916c114f] (02/95) Accurately ripped
 04     [52b26ee4] (02/94) Accurately ripped
 05     [a70546e9] (02/95) Accurately ripped
 06     [745e9eaa] (02/93) Accurately ripped
 07     [2520966b] (02/93) Accurately ripped
 08     [582327f2] (02/94) Accurately ripped
 09     [ee1e9ede] (02/94) Accurately ripped
 10     [faa4d49a] (02/95) Accurately ripped
Track Peak [ CRC32  ] [W/O NULL] [  LOG   ]
 --   99,7 [13A6FC8F] [68F10043]   CRC32
 01   99,7 [D3940565] [E9DA4E2E]
 02   95,9 [D012A949] [B64BFD3D]
 03   76,2 [E25A3243] [A2CFA8CE]
 04   83,8 [AC71A412] [3E5F4CCA]
 05   93,1 [D9DE5CD8] [9296E94C]
 06   85,9 [FDDBFCFA] [8EE5433E]
 07   99,7 [56E40FAD] [EF3F6041]
 08   94,5 [C4F7BD37] [847D6C4D]
 09   98,6 [420CEB7E] [37E79021]
 10   98,4 [EDC3F9E9] [9BF1FC1F]
Правила, инструкции, FAQ!!!
Торрент  Добавлен [26 мар 2019, 20:48] Скачать торрент Магнет ссылка
Скачать торрент
[ Размер 13.83 КБ / Просмотров 31 ]

Статус
Проверен 
 
Размер  327.89 МБ
Приватный: Нет (DHT включён)
.torrent скачан  0
 


     Отправить личное сообщение
   
Страница 1 из 1
Показать сообщения за:  Поле сортировки  
Начать новую тему Ответить на тему


Сейчас этот форум просматривают: нет зарегистрированных пользователей и гости: 0


Вы не можете начинать темы
Вы не можете отвечать на сообщения
Вы не можете редактировать свои сообщения
Вы не можете удалять свои сообщения
Вы не можете добавлять вложения

Перейти:  
cron