Начать новую тему Ответить на тему
Статистика раздачи
Размер: 580.7 МБ | Добавлен: 26 мар 2019, 19:36 | Скачали: 0
Сидеров: 0  [0 байт/сек]    Личеров: 0  [0 байт/сек]
Пред. тема | След. тема 

Автор
Сообщение

СообщениеДобавлено: 26 мар 2019, 19:36 

Ответить с цитатой 

Clique Girlz -
Incredible (Special Edition, Japan)Жанр: Pop Rock
Лейбл: Interscope Records
Изготовитель: Universal International (Universal Music K.K)
Каталог: UICS-9094
Страна/Сделано: Japan
Год издания: 2008
Тип рипа: Image+.Cue
Аудио кодек: FLAC [*.flac]
Метод сжатия аудио: lossless
Продолжительность: 1 ч 03 мин
Источник (релизёр): Рипы с собственных CD (RoxMan)
Наличие сканов: Да


01. Then I Woke Up (3:50)
02. Without You (3:20)
03. Incredible (4:35)
04. Never Gonna Fly (3:03)
05. You Think (3:29)
06. How Do You Like Me So Far? (3:00)
07. Ordinary Girl (2:53)
08. It's A Beautiful Thing (3:12)
09. My Time (3:26)
10. Shoot The Moon (3:36)
11. So Hard, So Far (3:30)
12. What It's Like To Be Me (3:21)
13. Smile (3:10)
14. Angels (4:29)
15. The Difference In Me (3:48)
Bonus tracks:
16. Who Wouldn't Wanna (3:40)
17. A Word For You (3:15)
18. Heaven Is A Place On Earth (3:44)
Special Edition - бонусом к диску прилагается небольшая
льняная сумочка для переноски с логотипом группы.
Код:
Exact Audio Copy V1.0 beta 3 from 29. August 2011
EAC extraction logfile from 13. October 2013, 21:56
Clique Girlz / Incredible
Used drive  : ASUS    DRW-20B1ST   Adapter: 2  ID: 0
Read mode               : Secure
Utilize accurate stream : Yes
Defeat audio cache      : Yes
Make use of C2 pointers : No
Read offset correction                      : 6
Overread into Lead-In and Lead-Out          : No
Fill up missing offset samples with silence : Yes
Delete leading and trailing silent blocks   : No
Null samples used in CRC calculations       : Yes
Used interface                              : Native Win32 interface for Win NT & 2000
Used output format              : User Defined Encoder
Selected bitrate                : 1024 kBit/s
Quality                         : High
Add ID3 tag                     : No
Command line compressor         : C:\Program Files\Exact Audio Copy\Flac\flac.exe
Additional command line options : -V -8 -T "Date=%year%" -T "Genre=%genre%" -T "Comment=Rip made RoxMan, Enjoy!" %source%
TOC of the extracted CD
     Track |   Start  |  Length  | Start sector | End sector
    ---------------------------------------------------------
        1  |  0:00.00 |  3:49.40 |         0    |    17214
        2  |  3:49.40 |  3:19.74 |     17215    |    32213
        3  |  7:09.39 |  4:34.67 |     32214    |    52830
        4  | 11:44.31 |  3:02.44 |     52831    |    66524
        5  | 14:47.00 |  3:29.12 |     66525    |    82211
        6  | 18:16.12 |  3:00.28 |     82212    |    95739
        7  | 21:16.40 |  2:52.57 |     95740    |   108696
        8  | 24:09.22 |  3:12.03 |    108697    |   123099
        9  | 27:21.25 |  3:26.16 |    123100    |   138565
       10  | 30:47.41 |  3:36.34 |    138566    |   154799
       11  | 34:24.00 |  3:29.39 |    154800    |   170513
       12  | 37:53.39 |  3:20.42 |    170514    |   185555
       13  | 41:14.06 |  3:09.53 |    185556    |   199783
       14  | 44:23.59 |  4:28.62 |    199784    |   219945
       15  | 48:52.46 |  3:48.19 |    219946    |   237064
       16  | 52:40.65 |  3:39.55 |    237065    |   253544
       17  | 56:20.45 |  3:15.37 |    253545    |   268206
       18  | 59:36.07 |  3:43.51 |    268207    |   284982
Range status and errors
Selected range
     Filename D:\Clique Girlz - Incredible.wav
     Peak level 100.0 %
     Extraction speed 8.3 X
     Range quality 100.0 %
     Test CRC 10C41A3F
     Copy CRC 10C41A3F
     Copy OK
No errors occurred
AccurateRip summary
Track  1  not present in database
Track  2  not present in database
Track  3  not present in database
Track  4  not present in database
Track  5  not present in database
Track  6  not present in database
Track  7  not present in database
Track  8  not present in database
Track  9  not present in database
Track 10  not present in database
Track 11  not present in database
Track 12  not present in database
Track 13  not present in database
Track 14  not present in database
Track 15  not present in database
Track 16  not present in database
Track 17  not present in database
Track 18  not present in database
None of the tracks are present in the AccurateRip database
End of status report
==== Log checksum 7C8FE84287B42C09B2DC045AD6B8B4F3E7C1BE8473B343330A3B0031F64B9F75 ====


PS: раздача с 18:00 до 23:30 (время московское).
Поддерживая раздачу, вы даёте возможность скачать её другим !
Правила, инструкции, FAQ!!!
Торрент  Добавлен [26 мар 2019, 19:36] Скачать торрент Магнет ссылка
Скачать торрент
[ Размер 13.29 КБ / Просмотров 0 ]

Статус
Проверен 
 
Размер  580.7 МБ
Приватный: Нет (DHT включён)
.torrent скачан  0
 


     Отправить личное сообщение
   
Страница 1 из 1
Показать сообщения за:  Поле сортировки  
Начать новую тему Ответить на тему


Сейчас этот форум просматривают: нет зарегистрированных пользователей и гости: 0


Вы не можете начинать темы
Вы не можете отвечать на сообщения
Вы не можете редактировать свои сообщения
Вы не можете удалять свои сообщения
Вы не можете добавлять вложения

Перейти:  
cron