Начать новую тему Ответить на тему
Статистика раздачи
Размер: 283.98 МБ | Добавлен: 26 мар 2019, 20:34 | Скачали: 0
Сидеров: 0  [0 байт/сек]    Личеров: 1  [0 байт/сек]
Пред. тема | След. тема 

Автор
Сообщение

СообщениеДобавлено: 26 мар 2019, 20:34 

Ответить с цитатой 

Cliff Richard - Listen To Cliff (Remaster Digipack)
Жанр: Pop Rock
Год выпуска диска: 1961[2000]
Производитель диска: Россия
Аудио кодек: FLAC
Тип рипа: image+.cue
Битрейт аудио: lossless
Продолжительность: 0:47:43
Label: EMI Int'l
ASIN: B000008A3M
Источник рипа: Лично сам
CD: Cliff Richard - Listen To Cliff (Remaster Digipack)
01. What'd I Say [0:03:03.66]
02. Blue Moon [0:03:32.73]
03. True Love Will Come To You [0:02:58.31]
04. Lover [0:01:49.38]
05. Unchained Melody [0:03:30.64]
06. Idle Gossip [0:02:54.30]
07. First Lesson In Love [0:01:56.44]
08. Almost Like Being In Love [0:02:05.07]
09. Beat Out Dat Rhythm A Drum [0:01:59.47]
10. Memories Linger On [0:02:40.23]
11. Temptation [0:02:24.70]
12. I Live For You [0:02:15.73]
13. Sentimental Journey [0:02:09.15]
14. I Want You To Know [0:02:29.16]
15. We Kiss In A Shadow ( The King And I) [0:03:23.18]
16. It's You [0:03:22.02]
17. True Love Will Come To You [0:02:41.74]
18. I Want You To Know [0:02:25.42]
Код:
Exact Audio Copy V0.99 prebeta 4 from 23. January 2008
Отчёт EAC об извлечении, выполненном 29. декабря 2008, 8:02
Cliff Richard / Listen To Cliff (Remaster Digipack)
Дисковод: PLEXTOR DVDR   PX-716A   Adapter: 0  ID: 1
Режим чтения                 : Достоверность
Использование точного потока : Да
Отключение кэша аудио        : Да
Использование указателей C2  : Нет
Коррекция смещения при чтении                     : 30
Способность читать области Lead-in и Lead-out     : Нет
Заполнение пропущенных сэмплов тишиной            : Да
Удаление блоков с тишиной в начале и конце        : Нет
При вычислениях CRC использовались нулевые сэмплы : Да
Интерфейс                                         : Встроенный Win32-интерфейс для Win NT/2000
Выходной формат          : Пользовательский кодировщик
Выбранный битрейт        : 768 kBit/s
Качество                 : Высокий
Добавление ID3-тэга      : Нет
Утилита сжатия           : C:\Program Files\Exact Audio Copy\Flac\flac.exe
Дополнительные параметры : -8 -V -T "ARTIST=%a" -T "TITLE=%t" -T "ALBUM=%g" -T "DATE=%y" -T "TRACKNUMBER=%n" -T "GENRE=%m" -T "COMMENT=%e" %s -o %d
TOC извлечённого CD
     Трек |   Старт  | Длительность | Начальный сектор | Конечный сектор
    ---------------------------------------------------------------------
       1  |  0:00.00 |    3:03.66   |           0      |      13790
       2  |  3:03.66 |    3:32.73   |       13791      |      29763
       3  |  6:36.64 |    2:58.31   |       29764      |      43144
       4  |  9:35.20 |    1:49.38   |       43145      |      51357
       5  | 11:24.58 |    3:30.64   |       51358      |      67171
       6  | 14:55.47 |    2:54.30   |       67172      |      80251
       7  | 17:50.02 |    1:56.44   |       80252      |      88995
       8  | 19:46.46 |    2:05.07   |       88996      |      98377
       9  | 21:51.53 |    1:59.47   |       98378      |     107349
      10  | 23:51.25 |    2:40.23   |      107350      |     119372
      11  | 26:31.48 |    2:24.70   |      119373      |     130242
      12  | 28:56.43 |    2:15.73   |      130243      |     140440
      13  | 31:12.41 |    2:09.15   |      140441      |     150130
      14  | 33:21.56 |    2:29.16   |      150131      |     161321
      15  | 35:50.72 |    3:23.18   |      161322      |     176564
      16  | 39:14.15 |    3:22.02   |      176565      |     191716
      17  | 42:36.17 |    2:41.74   |      191717      |     203865
      18  | 45:18.16 |    2:25.42   |      203866      |     214782
Характеристики диапазона извлечения и сообщения об ошибках
Выбранный диапазон
     Имя файла J:\темр\Cliff Richard - Listen To Cliff (Remaster Digipack)\Cliff Richard - Listen To Cliff (Remaster Digipack).wav
     Пиковый уровень 100.0 %
     Качество диапазона 100.0 %
     CRC теста 49F11EEF
     CRC копии 49F11EEF
     Копирование... OK
Ошибок не произошло
AccurateRip: сводка
Трек  1  нет в базе данных
Трек  2  нет в базе данных
Трек  3  нет в базе данных
Трек  4  нет в базе данных
Трек  5  нет в базе данных
Трек  6  нет в базе данных
Трек  7  нет в базе данных
Трек  8  нет в базе данных
Трек  9  нет в базе данных
Трек 10  нет в базе данных
Трек 11  нет в базе данных
Трек 12  нет в базе данных
Трек 13  нет в базе данных
Трек 14  нет в базе данных
Трек 15  нет в базе данных
Трек 16  нет в базе данных
Трек 17  нет в базе данных
Трек 18  нет в базе данных
Ни одного трека нет в базе AccurateRip
Конец отчёта
Правила, инструкции, FAQ!!!
Торрент  Добавлен [26 мар 2019, 20:34] Скачать торрент Магнет ссылка
Скачать торрент
[ Размер 11.92 КБ / Просмотров 2 ]

Статус
Проверен 
 
Размер  283.98 МБ
Приватный: Нет (DHT включён)
.torrent скачан  0
 


     Отправить личное сообщение
   
Страница 1 из 1
Показать сообщения за:  Поле сортировки  
Начать новую тему Ответить на тему


Сейчас этот форум просматривают: нет зарегистрированных пользователей и гости: 0


Вы не можете начинать темы
Вы не можете отвечать на сообщения
Вы не можете редактировать свои сообщения
Вы не можете удалять свои сообщения
Вы не можете добавлять вложения

Перейти:  
cron