Начать новую тему Ответить на тему
Статистика раздачи
Размер: 1.51 ГБ | Добавлен: 26 мар 2019, 18:43 | Скачали: 0
Сидеров: 0  [0 байт/сек]    Личеров: 0  [0 байт/сек]
Пред. тема | След. тема 

Автор
Сообщение

СообщениеДобавлено: 26 мар 2019, 18:43 

Ответить с цитатой 

Veronika Fischer - 35 Jubilaums-Box 5CD 1975-79/2006
Жанр: Pop Rock / Classis Rock / Prog Rock
Год выпуска диска: 2006
Страна исполнителя: DDR (East Germany)
Производитель диска: Germany
Аудио кодек: APE
Тип рипа: image+.cue
Битрейт аудио: lossless
Вероника Фишер стала одной из самых популярных певиц в бывшей ГДР с синглами "Du Willst Deinen Spass" и "Ain Gefuhl Wie DAS Leben".
Образованная в Дрезденском Музыкальном колледже конце 60 и начале 70-х группа Panta Rhei, где Фишер была вокалистской,
ворвалась на рок-сцену ГДР. В 1974 году Вероника закончила колледж и собрав свою группу, выпустила первый сольный альбом,
Veronika Fischer & Band, в 1975 году. Следующие два альбома, Sommernachtsball в 1976 и в 1978 Aufstehn, делают Веронику
одной из наиболее популярных музыкантов в Восточной Германии. Вдохновленная растущей популярностью и в Западной Германии,
Фишер покинула ГДР в1981 году. Хотя она и не стала столь известной в ФРГ, как по другую сторону Берлинской стены, Фишер сумела сохранить
тем не менее устойчивую популярность. Записывается и издается до сих пор.
Это издание посвящено 35-ти летию профессиональной карьеры Вероники Фишер. Включает материал ГДРовского периода.

Официальный сайт
#777Продолжительность: 41:26
01. Und wer bist du 3:23
02. Blues von der letzten Gelegenheit 3:52
03. Auf der Wiese 3:58
04. In jener Nacht 3:20
05. Die Liebe ist gegangen 4:05
06. Hänschengross 4:15
07. Klavier im Fluss 3:20
08. Zu gross der Hut 4:23
09. Dass ich eine Schneeflocke wär 3:20
10. Halt an 4:23
11. Guten Tag 3:03
Код:
Exact Audio Copy V0.99 prebeta 4 from 23. January 2008
Отчёт EAC об извлечении, выполненном 4. апреля 2009, 17:07
Veronika Fischer & Band / Veronika Fischer & Band
Дисковод: Optiarc DVD RW AD-7203A   Adapter: 0  ID: 0
Режим чтения                 : Достоверность
Использование точного потока : Да
Отключение кэша аудио        : Нет
Использование указателей C2  : Да
Коррекция смещения при чтении                     : 48
Способность читать области Lead-in и Lead-out     : Нет
Заполнение пропущенных сэмплов тишиной            : Да
Удаление блоков с тишиной в начале и конце        : Нет
При вычислениях CRC использовались нулевые сэмплы : Нет
Интерфейс                                         : Встроенный Win32-интерфейс для Win NT/2000
Выходной формат : Внутренние WAV-операции
Формат сэмплов  : 44.100 Гц; 16 бит; стерео
TOC извлечённого CD
     Трек |   Старт  | Длительность | Начальный сектор | Конечный сектор
    ---------------------------------------------------------------------
       1  |  0:00.00 |    3:25.61   |           0      |      15435
       2  |  3:25.61 |    3:51.28   |       15436      |      32788
       3  |  7:17.14 |    3:56.09   |       32789      |      50497
       4  | 11:13.23 |    3:18.60   |       50498      |      65407
       5  | 14:32.08 |    4:05.19   |       65408      |      83801
       6  | 18:37.27 |    4:17.21   |       83802      |     103097
       7  | 22:54.48 |    3:20.53   |      103098      |     118150
       8  | 26:15.26 |    4:24.67   |      118151      |     138017
       9  | 30:40.18 |    3:21.69   |      138018      |     153161
      10  | 34:02.12 |    4:22.69   |      153162      |     172880
      11  | 38:25.06 |    3:01.61   |      172881      |     186516
Характеристики диапазона извлечения и сообщения об ошибках
Выбранный диапазон
     Имя файла F:\ostrock.forum-bb.net\Veronika Fischer & Band-1975-Veronika Fischer & Band\Veronika Fischer & Band - Veronika Fischer & Band.wav
     Пиковый уровень 99.5 %
     Качество диапазона 100.0 %
     CRC теста 16184976
     CRC копии 16184976
     Копирование... OK
Ошибок не произошло
Конец отчёта
#777Продолжительность: 41:49
01. Vorspiel 0:30
02. Hans im Glück 4:40
03. Ich rufe dich 4:40
04. Nein, Doktor, nein 3:27
05. ... und sprach kein Wort 3:50
06. Sommernachtsball 3:50
07. He, wir fahr'n mit dem Zug 4:15
08. Der Hahnrei 5:00
09. Rauchiger Sommer 3:10
10. Sie sassen auf dem Standesamt 4:10
11. Klar, werd' ich warten + Nachspiel 4:25
Код:
Exact Audio Copy V0.99 prebeta 4 from 23. January 2008
Отчёт EAC об извлечении, выполненном 4. апреля 2009, 19:06
Veronika Fischer / Veronika Fischer & Band 1977
Дисковод: Optiarc DVD RW AD-7203A   Adapter: 0  ID: 0
Режим чтения                 : Достоверность
Использование точного потока : Да
Отключение кэша аудио        : Нет
Использование указателей C2  : Да
Коррекция смещения при чтении                     : 48
Способность читать области Lead-in и Lead-out     : Нет
Заполнение пропущенных сэмплов тишиной            : Да
Удаление блоков с тишиной в начале и конце        : Нет
При вычислениях CRC использовались нулевые сэмплы : Нет
Интерфейс                                         : Встроенный Win32-интерфейс для Win NT/2000
Выходной формат : Внутренние WAV-операции
Формат сэмплов  : 44.100 Гц; 16 бит; стерео
TOC извлечённого CD
     Трек |   Старт  | Длительность | Начальный сектор | Конечный сектор
    ---------------------------------------------------------------------
       1  |  0:00.00 |    0:33.00   |           0      |       2474
       2  |  0:33.00 |    4:33.13   |        2475      |      22962
       3  |  5:06.13 |    4:40.25   |       22963      |      43987
       4  |  9:46.38 |    3:26.30   |       43988      |      59467
       5  | 13:12.68 |    3:48.33   |       59468      |      76600
       6  | 17:01.26 |    3:50.73   |       76601      |      93923
       7  | 20:52.24 |    4:13.30   |       93924      |     112928
       8  | 25:05.54 |    5:03.13   |      112929      |     135666
       9  | 30:08.67 |    3:10.59   |      135667      |     149975
      10  | 33:19.51 |    4:08.04   |      149976      |     168579
      11  | 37:27.55 |    4:21.21   |      168580      |     188175
Характеристики диапазона извлечения и сообщения об ошибках
Выбранный диапазон
     Имя файла F:\ostrock.forum-bb.net\Veronika Fischer-1977-Veronika Fischer & Band\Veronika Fischer - Veronika Fischer & Band 1977.wav
     Пиковый уровень 99.0 %
     Качество диапазона 100.0 %
     CRC теста 315F1E8F
     CRC копии 315F1E8F
     Копирование... OK
Ошибок не произошло
Конец отчёта
#777Продолжительность: 39:07
01. Aufstehn 3:07
02. Hey, Schüchtermann 2:20
03. Hast du einen Freund 2:42
04. Meiner Schuhe Ausgang 3:15
05. Sonntag im Schlaraffenland 3:27
06. Armer Harlekin 3:05
07. Sommer unter Freunden 5:30
08. Im Schein der Kerzen 2:55
09. Weihnachten wieder daheim 5:10
10. Silber im Haar 3:30
11. Die Nacht mit dem kleinen Kummer 3:45
Код:
Exact Audio Copy V0.99 prebeta 4 from 23. January 2008
Отчёт EAC об извлечении, выполненном 4. апреля 2009, 20:13
Veronika Fischer / Aufstehn
Дисковод: Optiarc DVD RW AD-7203A   Adapter: 0  ID: 0
Режим чтения                 : Достоверность
Использование точного потока : Да
Отключение кэша аудио        : Нет
Использование указателей C2  : Да
Коррекция смещения при чтении                     : 48
Способность читать области Lead-in и Lead-out     : Нет
Заполнение пропущенных сэмплов тишиной            : Да
Удаление блоков с тишиной в начале и конце        : Нет
При вычислениях CRC использовались нулевые сэмплы : Нет
Интерфейс                                         : Встроенный Win32-интерфейс для Win NT/2000
Выходной формат : Внутренние WAV-операции
Формат сэмплов  : 44.100 Гц; 16 бит; стерео
TOC извлечённого CD
     Трек |   Старт  | Длительность | Начальный сектор | Конечный сектор
    ---------------------------------------------------------------------
       1  |  0:00.00 |    3:09.60   |           0      |      14234
       2  |  3:09.60 |    2:22.74   |       14235      |      24958
       3  |  5:32.59 |    2:46.17   |       24959      |      37425
       4  |  8:19.01 |    3:17.30   |       37426      |      52230
       5  | 11:36.31 |    3:29.66   |       52231      |      67971
       6  | 15:06.22 |    3:06.01   |       67972      |      81922
       7  | 18:12.23 |    5:30.11   |       81923      |     106683
       8  | 23:42.34 |    2:59.19   |      106684      |     120127
       9  | 26:41.53 |    5:09.34   |      120128      |     143336
      10  | 31:51.12 |    3:30.61   |      143337      |     159147
      11  | 35:21.73 |    3:45.22   |      159148      |     176044
Характеристики диапазона извлечения и сообщения об ошибках
Выбранный диапазон
     Имя файла F:\ostrock.forum-bb.net\Veronika Fischer-1978-Aufstehn\Veronika Fischer - Aufstehn.wav
     Пиковый уровень 99.1 %
     Качество диапазона 100.0 %
     CRC теста 0EDBFE94
     CRC копии 0EDBFE94
     Копирование... OK
Ошибок не произошло
Конец отчёта
#777Продолжительность: 41:11
01. Ouvertüre 2:10
02. Goldene Brücken 4:25
03. Insel im Norden 4:25
04. Kinder des Sonntags 3:40
05. Der Vagabund 5:10
06. Niemals mehr (für G.Z. und H.P.) 6:50
07. In uralter Zeit 4:40
08. Zeit für ein Kind 3:25
09. Wenn der Vorhang fällt 4:40
10. Nachspiel 1:40
Код:
Exact Audio Copy V0.99 prebeta 4 from 23. January 2008
Отчёт EAC об извлечении, выполненном 4. апреля 2009, 19:00
Veronika Fischer / Goldene Brьcken
Дисковод: Optiarc DVD RW AD-7203A   Adapter: 0  ID: 0
Режим чтения                 : Достоверность
Использование точного потока : Да
Отключение кэша аудио        : Нет
Использование указателей C2  : Да
Коррекция смещения при чтении                     : 48
Способность читать области Lead-in и Lead-out     : Нет
Заполнение пропущенных сэмплов тишиной            : Да
Удаление блоков с тишиной в начале и конце        : Нет
При вычислениях CRC использовались нулевые сэмплы : Нет
Интерфейс                                         : Встроенный Win32-интерфейс для Win NT/2000
Выходной формат : Внутренние WAV-операции
Формат сэмплов  : 44.100 Гц; 16 бит; стерео
TOC извлечённого CD
     Трек |   Старт  | Длительность | Начальный сектор | Конечный сектор
    ---------------------------------------------------------------------
       1  |  0:00.00 |    2:12.57   |           0      |       9956
       2  |  2:12.57 |    4:30.11   |        9957      |      30217
       3  |  6:42.68 |    4:31.26   |       30218      |      50568
       4  | 11:14.19 |    3:45.59   |       50569      |      67502
       5  | 15:00.03 |    5:15.25   |       67503      |      91152
       6  | 20:15.28 |    6:53.35   |       91153      |     122162
       7  | 27:08.63 |    4:46.34   |      122163      |     143646
       8  | 31:55.22 |    3:22.64   |      143647      |     158860
       9  | 35:18.11 |    4:35.60   |      158861      |     179545
      10  | 39:53.71 |    1:17.08   |      179546      |     185328
Характеристики диапазона извлечения и сообщения об ошибках
Выбранный диапазон
     Имя файла F:\ostrock.forum-bb.net\Veronika Fischer-1978-Goldene Brucken\Veronika Fischer - Goldene Brьcken.wav
     Пиковый уровень 100.0 %
     Качество диапазона 100.0 %
     CRC теста 6EF73CC3
     CRC копии 6EF73CC3
     Копирование... OK
Ошибок не произошло
Конец отчёта
#777Продолжительность: 70:48
01. Hitmedley 3:57
02. Der Mond zieht an den Wassern 3:35
03. Halt mich fest 3:55
04. Zeit hat immer Eile 4:35
05. Samariterblues 3:44
06. Als ich noch ein Kind war 4:03
07. Alles fliesst 4:10
08. Zigarettenblues 3:15
09. Ich bin geboren in Berlin 2:33
10. In meiner Stadt 2:59
11. Berlin 4:00
12. Alex 2:33
13. Veronika Fischer mit Harald Juhnke - Darum liebe ich dich so 4:40
14. Manchmal im Traum 2:55
15. Nur mit dir leben 4:36
16. An der Uhr 2:30
17. Tage gibt es 2:56
18. Veronika Fischer mit Tobias Künzel - Ich hab dich lieb 4:14
19. Nachts 5:05
Код:
Exact Audio Copy V0.99 prebeta 4 from 23. January 2008
Отчёт EAC об извлечении, выполненном 4. апреля 2009, 18:14
Veronika Fischer / Unverцffentlichte Songs & Raritдten
Дисковод: Optiarc DVD RW AD-7203A   Adapter: 0  ID: 0
Режим чтения                 : Достоверность
Использование точного потока : Да
Отключение кэша аудио        : Нет
Использование указателей C2  : Да
Коррекция смещения при чтении                     : 48
Способность читать области Lead-in и Lead-out     : Нет
Заполнение пропущенных сэмплов тишиной            : Да
Удаление блоков с тишиной в начале и конце        : Нет
При вычислениях CRC использовались нулевые сэмплы : Нет
Интерфейс                                         : Встроенный Win32-интерфейс для Win NT/2000
Выходной формат : Внутренние WAV-операции
Формат сэмплов  : 44.100 Гц; 16 бит; стерео
TOC извлечённого CD
     Трек |   Старт  | Длительность | Начальный сектор | Конечный сектор
    ---------------------------------------------------------------------
       1  |  0:00.00 |    4:04.36   |           0      |      18335
       2  |  4:04.36 |    3:38.04   |       18336      |      34689
       3  |  7:42.40 |    3:55.57   |       34690      |      52371
       4  | 11:38.22 |    4:33.29   |       52372      |      72875
       5  | 16:11.51 |    3:45.31   |       72876      |      89781
       6  | 19:57.07 |    4:05.33   |       89782      |     108189
       7  | 24:02.40 |    4:09.20   |      108190      |     126884
       8  | 28:11.60 |    3:17.00   |      126885      |     141659
       9  | 31:28.60 |    2:24.58   |      141660      |     152517
      10  | 33:53.43 |    3:00.26   |      152518      |     166043
      11  | 36:53.69 |    4:00.56   |      166044      |     184099
      12  | 40:54.50 |    2:34.00   |      184100      |     195649
      13  | 43:28.50 |    4:41.51   |      195650      |     216775
      14  | 48:10.26 |    2:58.02   |      216776      |     230127
      15  | 51:08.28 |    4:38.01   |      230128      |     250978
      16  | 55:46.29 |    2:34.01   |      250979      |     262529
      17  | 58:20.30 |    3:02.30   |      262530      |     276209
      18  | 61:22.60 |    4:17.17   |      276210      |     295501
      19  | 65:40.02 |    5:08.05   |      295502      |     318606
Характеристики диапазона извлечения и сообщения об ошибках
Выбранный диапазон
     Имя файла F:\ostrock.forum-bb.net\Veronika Fischer-2006-Unveroffentlichte Songs & Raritaten\Veronika Fischer - Unverцffentlichte Songs & Raritдten.wav
     Пиковый уровень 99.2 %
     Качество диапазона 100.0 %
     CRC теста 9D1A9A68
     CRC копии 9D1A9A68
     Копирование... OK
Ошибок не произошло
Конец отчёта
#777#777
Альбомы записанные вокалисткой Panta Rhei
после того, как Вероника покинула группу и до того, как она покинула историческую родину, сбежав в ФРГ.
После чего, кстати сказать, альбомы Veronika Fischer & Band были запрещены в СССР.
Музыка разноплановая. Преобладает отличного качества поп-рок, но, практически везде есть то блюзовые, то хардовые, а то и прогрессивные вещи.
рип не мой, вещица Antiquar'ая
сканы 300 dpi внутри
Правила, инструкции, FAQ!!!
Торрент  Добавлен [26 мар 2019, 18:43] Скачать торрент Магнет ссылка
Скачать торрент
[ Размер 18.63 КБ / Просмотров 2 ]

Статус
Проверен 
 
Размер  1.51 ГБ
Приватный: Нет (DHT включён)
.torrent скачан  0
 


     Отправить личное сообщение
   
Страница 1 из 1
Показать сообщения за:  Поле сортировки  
Начать новую тему Ответить на тему


Сейчас этот форум просматривают: нет зарегистрированных пользователей и гости: 0


Вы не можете начинать темы
Вы не можете отвечать на сообщения
Вы не можете редактировать свои сообщения
Вы не можете удалять свои сообщения
Вы не можете добавлять вложения

Перейти:  
cron