Начать новую тему Ответить на тему
Статистика раздачи
Размер: 258.27 МБ | Добавлен: 26 мар 2019, 19:35 | Скачали: 0
Сидеров: 0  [0 байт/сек]    Личеров: 0  [0 байт/сек]
Пред. тема | След. тема 

Автор
Сообщение

СообщениеДобавлено: 26 мар 2019, 19:35 

Ответить с цитатой 

Cicada Sings / Lousy Private Fuzz
Жанр: Pop rock
Носитель: CD
Год издания: 1994
Страна исполнителя (группы): USA
Аудиокодек: FLAC (*.flac)
Тип рипа: tracks+.cue
Битрейт аудио: lossless
Продолжительность: 00:45:43
Источник (релизер): unknown
Наличие сканов в содержимом раздачи: нет
Треклист:
01. Voodoo
02. No Fun Intended
03. Take a Walk
04. Niagara
05. Lousy Private Fuzz
06. Instrumental for Hips
07. Like Someone in Love
08. Variation on a Theme
09. Young Lovers
10. Misfortunate
11. Solitude
12. Always Listen to a Threat
13. Out of My Head
14. In the Mood
15. Instrumental for Butts
16. Slickers in the Sun
17. Submissive Friend
Код:
Exact Audio Copy V1.0 beta 2 from 29. April 2011
EAC extraction logfile from 4. December 2011, 11:17
Cicada Sings / Lousy Private Fuzz
Used drive  : hp      CDDVDW TS-L633N   Adapter: 0  ID: 1
Read mode               : Secure
Utilize accurate stream : Yes
Defeat audio cache      : Yes
Make use of C2 pointers : No
Read offset correction                      : 6
Overread into Lead-In and Lead-Out          : No
Fill up missing offset samples with silence : Yes
Delete leading and trailing silent blocks   : No
Null samples used in CRC calculations       : Yes
Used interface                              : Native Win32 interface for Win NT & 2000
Gap handling                                : Appended to previous track
Used output format              : User Defined Encoder
Selected bitrate                : 1024 kBit/s
Quality                         : High
Add ID3 tag                     : No
Command line compressor         : C:\Program Files (x86)\Exact Audio Copy\FLAC\FLAC.EXE
Additional command line options : -8 -V -T "ARTIST=%artist%" -T "TITLE=%title%" -T "ALBUM=%albumtitle%" -T "DATE=%year%" -T "TRACKNUMBER=%tracknr%" -T "GENRE=%genre%" -T "PERFORMER=%albuminterpret%" -T "COMPOSER=%composer%" %haslyrics%--tag-from-file=LYRICS
TOC of the extracted CD
     Track |   Start  |  Length  | Start sector | End sector
    ---------------------------------------------------------
        1  |  0:00.00 |  2:58.20 |         0    |    13369
        2  |  2:58.20 |  2:10.52 |     13370    |    23171
        3  |  5:08.72 |  2:49.33 |     23172    |    35879
        4  |  7:58.30 |  3:46.45 |     35880    |    52874
        5  | 11:45.00 |  5:25.60 |     52875    |    77309
        6  | 17:10.60 |  2:01.25 |     77310    |    86409
        7  | 19:12.10 |  3:30.20 |     86410    |   102179
        8  | 22:42.30 |  4:10.07 |    102180    |   120936
        9  | 26:52.37 |  3:00.35 |    120937    |   134471
       10  | 29:52.72 |  2:52.08 |    134472    |   147379
       11  | 32:45.05 |  2:24.40 |    147380    |   158219
       12  | 35:09.45 |  3:22.00 |    158220    |   173369
       13  | 38:31.45 |  3:00.57 |    173370    |   186926
       14  | 41:32.27 |  2:38.28 |    186927    |   198804
       15  | 44:10.55 |  1:17.05 |    198805    |   204584
       16  | 45:27.60 |  2:46.52 |    204585    |   217086
       17  | 48:14.37 |  2:39.20 |    217087    |   229031
Track  1
     Filename C:\cicada sings - 1993 - lousy private fuzz - flac\01 - Voodoo.wav
     Pre-gap length  0:00:02.00
     Peak level 88.3 %
     Extraction speed 1.0 X
     Track quality 99.9 %
     Test CRC 2B814CAF
     Copy CRC 2B814CAF
     Track not present in AccurateRip database
     Copy OK
Track  2
     Filename C:\cicada sings - 1993 - lousy private fuzz - flac\02 - No Fun Intended.wav
     Peak level 96.9 %
     Extraction speed 1.2 X
     Track quality 100.0 %
     Test CRC 3A9AC178
     Copy CRC 3A9AC178
     Track not present in AccurateRip database
     Copy OK
Track  3
     Filename C:\cicada sings - 1993 - lousy private fuzz - flac\03 - Take a Walk.wav
     Pre-gap length  0:00:01.62
     Peak level 97.6 %
     Extraction speed 1.3 X
     Track quality 100.0 %
     Test CRC A6B452A5
     Copy CRC A6B452A5
     Track not present in AccurateRip database
     Copy OK
Track  4
     Filename C:\cicada sings - 1993 - lousy private fuzz - flac\04 - Niagara.wav
     Pre-gap length  0:00:01.60
     Peak level 91.7 %
     Extraction speed 1.5 X
     Track quality 100.0 %
     Test CRC 2AD67F0A
     Copy CRC 2AD67F0A
     Track not present in AccurateRip database
     Copy OK
Track  5
     Filename C:\cicada sings - 1993 - lousy private fuzz - flac\05 - Lousy Private Fuzz.wav
     Pre-gap length  0:00:01.65
     Peak level 100.0 %
     Extraction speed 1.7 X
     Track quality 100.0 %
     Test CRC 197AAC52
     Copy CRC 197AAC52
     Track not present in AccurateRip database
     Copy OK
Track  6
     Filename C:\cicada sings - 1993 - lousy private fuzz - flac\06 - Instrumental for Hips.wav
     Pre-gap length  0:00:01.68
     Peak level 96.3 %
     Extraction speed 1.5 X
     Track quality 100.0 %
     Test CRC 456F4E95
     Copy CRC 456F4E95
     Track not present in AccurateRip database
     Copy OK
Track  7
     Filename C:\cicada sings - 1993 - lousy private fuzz - flac\07 - Like Someone in Love.wav
     Pre-gap length  0:00:01.65
     Peak level 71.2 %
     Extraction speed 1.7 X
     Track quality 100.0 %
     Test CRC 542D1486
     Copy CRC 542D1486
     Track not present in AccurateRip database
     Copy OK
Track  8
     Filename C:\cicada sings - 1993 - lousy private fuzz - flac\08 - Variation on a Theme.wav
     Pre-gap length  0:00:02.63
     Peak level 100.0 %
     Extraction speed 1.8 X
     Track quality 100.0 %
     Test CRC 34DDBA02
     Copy CRC 34DDBA02
     Track not present in AccurateRip database
     Copy OK
Track  9
     Filename C:\cicada sings - 1993 - lousy private fuzz - flac\09 - Young Lovers.wav
     Pre-gap length  0:00:01.52
     Peak level 71.3 %
     Extraction speed 1.8 X
     Track quality 100.0 %
     Test CRC E06FBA22
     Copy CRC E06FBA22
     Track not present in AccurateRip database
     Copy OK
Track 10
     Filename C:\cicada sings - 1993 - lousy private fuzz - flac\10 - Misfortunate.wav
     Pre-gap length  0:00:04.17
     Peak level 88.4 %
     Extraction speed 1.9 X
     Track quality 100.0 %
     Test CRC 55EB7C0E
     Copy CRC 55EB7C0E
     Track not present in AccurateRip database
     Copy OK
Track 11
     Filename C:\cicada sings - 1993 - lousy private fuzz - flac\11 - Solitude.wav
     Pre-gap length  0:00:01.53
     Peak level 86.8 %
     Extraction speed 1.9 X
     Track quality 100.0 %
     Test CRC 8DE84CE7
     Copy CRC 8DE84CE7
     Track not present in AccurateRip database
     Copy OK
Track 12
     Filename C:\cicada sings - 1993 - lousy private fuzz - flac\12 - Always Listen to a Threat.wav
     Pre-gap length  0:00:01.55
     Peak level 97.1 %
     Extraction speed 2.0 X
     Track quality 100.0 %
     Test CRC D35B9716
     Copy CRC D35B9716
     Track not present in AccurateRip database
     Copy OK
Track 13
     Filename C:\cicada sings - 1993 - lousy private fuzz - flac\13 - Out of My Head.wav
     Pre-gap length  0:00:01.58
     Peak level 100.0 %
     Extraction speed 2.0 X
     Track quality 100.0 %
     Test CRC 2C842DF8
     Copy CRC 2C842DF8
     Track not present in AccurateRip database
     Copy OK
Track 14
     Filename C:\cicada sings - 1993 - lousy private fuzz - flac\14 - In the Mood.wav
     Pre-gap length  0:00:00.02
     Peak level 86.9 %
     Extraction speed 1.5 X
     Track quality 99.9 %
     Test CRC 36A57B70
     Copy CRC 36A57B70
     Track not present in AccurateRip database
     Copy OK
Track 15
     Filename C:\cicada sings - 1993 - lousy private fuzz - flac\15 - Instrumental for Butts.wav
     Pre-gap length  0:00:00.03
     Peak level 100.0 %
     Extraction speed 1.6 X
     Track quality 100.0 %
     Test CRC ACE996CD
     Copy CRC ACE996CD
     Track not present in AccurateRip database
     Copy OK
Track 16
     Filename C:\cicada sings - 1993 - lousy private fuzz - flac\16 - Slickers in the Sun.wav
     Pre-gap length  0:00:01.63
     Peak level 100.0 %
     Extraction speed 2.1 X
     Track quality 100.0 %
     Test CRC CDC009C4
     Copy CRC CDC009C4
     Track not present in AccurateRip database
     Copy OK
Track 17
     Filename C:\cicada sings - 1993 - lousy private fuzz - flac\17 - Submissive Friend.wav
     Pre-gap length  0:00:02.55
     Peak level 95.7 %
     Extraction speed 2.1 X
     Track quality 100.0 %
     Test CRC B4495B29
     Copy CRC B4495B29
     Track not present in AccurateRip database
     Copy OK
None of the tracks are present in the AccurateRip database
No errors occurred
End of status report
---- CUETools DB Plugin V2.1.2
[CTDB TOCID: teJKSuo7817.sEvfem2mS5UNB.o-] disk not present in database, Submit result: teJKSuo7817.sEvfem2mS5UNB.o- has been uploaded
==== Log checksum A475C9E4A5B643110310BECB6F034B9E8A341A418610732115FEEE7FD80D6B32 ====
Код:
REM GENRE Jazz
REM DISCID DD0BED11
REM COMMENT "ExactAudioCopy v1.0b2"
CATALOG 0000000000000
PERFORMER "Cicada Sings"
TITLE "Lousy Private Fuzz"
FILE "01 - Voodoo.wav" WAVE
  TRACK 01 AUDIO
    TITLE "Voodoo"
    PERFORMER "Cicada Sings"
    INDEX 01 00:00:00
FILE "02 - No Fun Intended.wav" WAVE
  TRACK 02 AUDIO
    TITLE "No Fun Intended"
    PERFORMER "Cicada Sings"
    INDEX 01 00:00:00
  TRACK 03 AUDIO
    TITLE "Take a Walk"
    PERFORMER "Cicada Sings"
    INDEX 00 02:08:65
FILE "03 - Take a Walk.wav" WAVE
    INDEX 01 00:00:00
  TRACK 04 AUDIO
    TITLE "Niagara"
    PERFORMER "Cicada Sings"
    INDEX 00 02:47:48
FILE "04 - Niagara.wav" WAVE
    INDEX 01 00:00:00
  TRACK 05 AUDIO
    TITLE "Lousy Private Fuzz"
    PERFORMER "Cicada Sings"
    INDEX 00 03:44:55
FILE "05 - Lousy Private Fuzz.wav" WAVE
    INDEX 01 00:00:00
  TRACK 06 AUDIO
    TITLE "Instrumental for Hips"
    PERFORMER "Cicada Sings"
    INDEX 00 05:23:67
FILE "06 - Instrumental for Hips.wav" WAVE
    INDEX 01 00:00:00
  TRACK 07 AUDIO
    TITLE "Like Someone in Love"
    PERFORMER "Cicada Sings"
    INDEX 00 01:59:35
FILE "07 - Like Someone in Love.wav" WAVE
    INDEX 01 00:00:00
  TRACK 08 AUDIO
    TITLE "Variation on a Theme"
    PERFORMER "Cicada Sings"
    INDEX 00 03:27:32
FILE "08 - Variation on a Theme.wav" WAVE
    INDEX 01 00:00:00
  TRACK 09 AUDIO
    TITLE "Young Lovers"
    PERFORMER "Cicada Sings"
    INDEX 00 04:08:30
FILE "09 - Young Lovers.wav" WAVE
    INDEX 01 00:00:00
  TRACK 10 AUDIO
    TITLE "Misfortunate"
    PERFORMER "Cicada Sings"
    INDEX 00 02:56:18
FILE "10 - Misfortunate.wav" WAVE
    INDEX 01 00:00:00
  TRACK 11 AUDIO
    TITLE "Solitude"
    PERFORMER "Cicada Sings"
    INDEX 00 02:50:30
FILE "11 - Solitude.wav" WAVE
    INDEX 01 00:00:00
  TRACK 12 AUDIO
    TITLE "Always Listen to a Threat"
    PERFORMER "Cicada Sings"
    INDEX 00 02:22:60
FILE "12 - Always Listen to a Threat.wav" WAVE
    INDEX 01 00:00:00
  TRACK 13 AUDIO
    TITLE "Out of My Head"
    PERFORMER "Cicada Sings"
    INDEX 00 03:20:17
FILE "13 - Out of My Head.wav" WAVE
    INDEX 01 00:00:00
  TRACK 14 AUDIO
    TITLE "In the Mood"
    PERFORMER "Cicada Sings"
    INDEX 00 03:00:55
FILE "14 - In the Mood.wav" WAVE
    INDEX 01 00:00:00
  TRACK 15 AUDIO
    TITLE "Instrumental for Butts"
    PERFORMER "Cicada Sings"
    INDEX 00 02:38:25
FILE "15 - Instrumental for Butts.wav" WAVE
    INDEX 01 00:00:00
  TRACK 16 AUDIO
    TITLE "Slickers in the Sun"
    PERFORMER "Cicada Sings"
    INDEX 00 01:15:17
FILE "16 - Slickers in the Sun.wav" WAVE
    INDEX 01 00:00:00
  TRACK 17 AUDIO
    TITLE "Submissive Friend"
    PERFORMER "Cicada Sings"
    INDEX 00 02:43:72
FILE "17 - Submissive Friend.wav" WAVE
    INDEX 01 00:00:00
Правила, инструкции, FAQ!!!
Торрент  Добавлен [26 мар 2019, 19:35] Скачать торрент Магнет ссылка
Скачать торрент
[ Размер 11.68 КБ / Просмотров 1 ]

Статус
Проверен 
 
Размер  258.27 МБ
Приватный: Нет (DHT включён)
.torrent скачан  0
 


     Отправить личное сообщение
   
Страница 1 из 1
Показать сообщения за:  Поле сортировки  
Начать новую тему Ответить на тему


Сейчас этот форум просматривают: нет зарегистрированных пользователей и гости: 0


Вы не можете начинать темы
Вы не можете отвечать на сообщения
Вы не можете редактировать свои сообщения
Вы не можете удалять свои сообщения
Вы не можете добавлять вложения

Перейти:  
cron