Начать новую тему Ответить на тему
Статистика раздачи
Размер: 298.13 МБ | Добавлен: 26 мар 2019, 19:13 | Скачали: 0
Сидеров: 0  [0 байт/сек]    Личеров: 0  [0 байт/сек]
Пред. тема | След. тема 

Автор
Сообщение

СообщениеДобавлено: 26 мар 2019, 19:13 

Ответить с цитатой 

Christina Stürmer - Ich hör auf mein Herz -
2013
Жанр: Pop-Rock
Год издания: 2013
Издатель (лейбл): Polydor (Universal)
Страна: Austria
Аудиокодек: FLAC (*.flac)
Тип рипа: tracks+.cue
Битрейт аудио: lossless
Продолжительность: 00:43:28
Источник (релизер): Gutermann
Наличие сканов: Front, Back
Треклист:
01. Auf und davon 3:05
02. Ich hör auf mein Herz 3:26
03. Millionen Lichter 3:49
04. Himmel ins All 4:11
05. Selbe Wellenlänge 3:24
06. Herz in der Hand 4:14
07. Was machst du wenn die Stadt schläft 3:22
08. Amelie 3:02
09. Unendlich 3:32
10. Wieviel wiegt ein Herzschlag 3:50
11. Weltbewegend 3:28
12. Ohne dich (ist alles nichts) 4:00
Код:
Exact Audio Copy V1.0 beta 3 from 29. August 2011
EAC extraction logfile from 12. July 2013, 13:09
Christina Stuermer / Ich hoer auf mein Herz
Used drive  : PLEXTOR DVDR   PX-891SA   Adapter: 2  ID: 0
Read mode               : Secure
Utilize accurate stream : Yes
Defeat audio cache      : Yes
Make use of C2 pointers : No
Read offset correction                      : 6
Overread into Lead-In and Lead-Out          : No
Fill up missing offset samples with silence : Yes
Delete leading and trailing silent blocks   : No
Null samples used in CRC calculations       : Yes
Used interface                              : Native Win32 interface for Win NT & 2000
Gap handling                                : Appended to previous track
Used output format              : User Defined Encoder
Selected bitrate                : 1024 kBit/s
Quality                         : High
Add ID3 tag                     : No
Command line compressor         : C:\Program Files (x86)\Exact Audio Copy\Flac\flac.exe
Additional command line options : -V -8 -T "Genre=%genre%" -T "Artist=%artist%" -T "Title=%title%" -T "Album=%albumtitle%" -T "Date=%year%" -T "Tracknumber=%tracknr%" -T "Comment=%comment%" %source%
TOC of the extracted CD
     Track |   Start  |  Length  | Start sector | End sector
    ---------------------------------------------------------
        1  |  0:00.00 |  3:05.70 |         0    |    13944
        2  |  3:05.70 |  3:26.15 |     13945    |    29409
        3  |  6:32.10 |  3:49.66 |     29410    |    46650
        4  | 10:22.01 |  4:11.02 |     46651    |    65477
        5  | 14:33.03 |  3:24.02 |     65478    |    80779
        6  | 17:57.05 |  4:14.34 |     80780    |    99863
        7  | 22:11.39 |  3:22.44 |     99864    |   115057
        8  | 25:34.08 |  3:02.44 |    115058    |   128751
        9  | 28:36.52 |  3:32.63 |    128752    |   144714
       10  | 32:09.40 |  3:50.13 |    144715    |   161977
       11  | 35:59.53 |  3:28.70 |    161978    |   177647
       12  | 39:28.48 |  3:59.43 |    177648    |   195615
Track  1
     Filename C:\Halle\Christina Stuermer\01 Auf und davon.wav
     Pre-gap length  0:00:02.00
     Peak level 98.4 %
     Extraction speed 1.3 X
     Track quality 99.9 %
     Test CRC 2A26901B
     Copy CRC 2A26901B
     Accurately ripped (confidence 1)  [DC7BC62A]  (AR v1)
     Copy OK
Track  2
     Filename C:\Halle\Christina Stuermer\02 Ich hoer auf mein Herz.wav
     Peak level 98.3 %
     Extraction speed 1.4 X
     Track quality 99.9 %
     Test CRC 3EE4849D
     Copy CRC 3EE4849D
     Accurately ripped (confidence 1)  [AD1FF13A]  (AR v1)
     Copy OK
Track  3
     Filename C:\Halle\Christina Stuermer\03 Millionen Lichter.wav
     Peak level 98.4 %
     Extraction speed 2.2 X
     Track quality 100.0 %
     Test CRC 1CC84335
     Copy CRC 1CC84335
     Accurately ripped (confidence 1)  [2DBA10F0]  (AR v1)
     Copy OK
Track  4
     Filename C:\Halle\Christina Stuermer\04 Himmel ins All.wav
     Peak level 98.4 %
     Extraction speed 2.4 X
     Track quality 100.0 %
     Test CRC 00AA5C3E
     Copy CRC 00AA5C3E
     Accurately ripped (confidence 1)  [9247A429]  (AR v1)
     Copy OK
Track  5
     Filename C:\Halle\Christina Stuermer\05 Selbe Wellenlaenge.wav
     Peak level 98.4 %
     Extraction speed 2.5 X
     Track quality 100.0 %
     Test CRC 9A716C2D
     Copy CRC 9A716C2D
     Accurately ripped (confidence 1)  [84D7F16A]  (AR v1)
     Copy OK
Track  6
     Filename C:\Halle\Christina Stuermer\06 Herz in der Hand.wav
     Peak level 98.2 %
     Extraction speed 2.8 X
     Track quality 100.0 %
     Test CRC 354383F3
     Copy CRC 354383F3
     Accurately ripped (confidence 1)  [C2AA691B]  (AR v1)
     Copy OK
Track  7
     Filename C:\Halle\Christina Stuermer\07 Was machst du wenn die Stadt schlaeft.wav
     Peak level 98.2 %
     Extraction speed 2.8 X
     Track quality 100.0 %
     Test CRC 13AFC17B
     Copy CRC 13AFC17B
     Accurately ripped (confidence 1)  [DD2C0C20]  (AR v1)
     Copy OK
Track  8
     Filename C:\Halle\Christina Stuermer\08 Amelie.wav
     Peak level 98.8 %
     Extraction speed 2.0 X
     Track quality 99.9 %
     Test CRC 40AC5661
     Copy CRC 40AC5661
     Accurately ripped (confidence 1)  [0C009D1D]  (AR v1)
     Copy OK
Track  9
     Filename C:\Halle\Christina Stuermer\09 Unendlich.wav
     Peak level 98.3 %
     Extraction speed 2.2 X
     Track quality 99.9 %
     Test CRC 199231AE
     Copy CRC 199231AE
     Accurately ripped (confidence 1)  [B3ED3B90]  (AR v1)
     Copy OK
Track 10
     Filename C:\Halle\Christina Stuermer\10 Wieviel wiegt ein Herzschlag.wav
     Peak level 98.2 %
     Extraction speed 3.2 X
     Track quality 100.0 %
     Test CRC E4D155D8
     Copy CRC E4D155D8
     Accurately ripped (confidence 1)  [69FDEF72]  (AR v1)
     Copy OK
Track 11
     Filename C:\Halle\Christina Stuermer\11 Weltbewegend.wav
     Peak level 98.3 %
     Extraction speed 3.3 X
     Track quality 100.0 %
     Test CRC 9F894A6A
     Copy CRC 9F894A6A
     Accurately ripped (confidence 1)  [419EB3F1]  (AR v1)
     Copy OK
Track 12
     Filename C:\Halle\Christina Stuermer\12 Ohne dich (ist alles nichts).wav
     Peak level 97.7 %
     Extraction speed 3.4 X
     Track quality 100.0 %
     Test CRC 45A561AA
     Copy CRC 45A561AA
     Accurately ripped (confidence 1)  [17C77BEB]  (AR v1)
     Copy OK
All tracks accurately ripped
No errors occurred
End of status report
==== Log checksum BFA3BA2E9EF8BECD85DA2D8099DF8EBF685D377983D8231DB33E05A0B4201EA9 ====
Код:
REM GENRE Pop-rock
REM DATE 2013
REM DISCID A10A300C
REM COMMENT "ExactAudioCopy v1.0b3"
CATALOG 0602537333530
PERFORMER "Christina Stuermer"
TITLE "Ich hoer auf mein Herz "
FILE "01 Auf und davon.wav" WAVE
  TRACK 01 AUDIO
    TITLE "Auf und davon"
    PERFORMER "Christina Stuermer"
    ISRC DEUM71300417
    INDEX 01 00:00:00
FILE "02 Ich hoer auf mein Herz.wav" WAVE
  TRACK 02 AUDIO
    TITLE "Ich hoer auf mein Herz"
    PERFORMER "Christina Stuermer"
    ISRC DEUM71300418
    INDEX 01 00:00:00
FILE "03 Millionen Lichter.wav" WAVE
  TRACK 03 AUDIO
    TITLE "Millionen Lichter "
    PERFORMER "Christina Stuermer"
    ISRC DEUM71300419
    INDEX 01 00:00:00
FILE "04 Himmel ins All.wav" WAVE
  TRACK 04 AUDIO
    TITLE "Himmel ins All"
    PERFORMER "Christina Stuermer"
    ISRC DEUM71300420
    INDEX 01 00:00:00
FILE "05 Selbe Wellenlaenge.wav" WAVE
  TRACK 05 AUDIO
    TITLE "Selbe Wellenlaenge"
    PERFORMER "Christina Stuermer"
    ISRC DEUM71300421
    INDEX 01 00:00:00
FILE "06 Herz in der Hand.wav" WAVE
  TRACK 06 AUDIO
    TITLE "Herz in der Hand"
    PERFORMER "Christina Stuermer"
    ISRC DEUM71300422
    INDEX 01 00:00:00
FILE "07 Was machst du wenn die Stadt schlaeft.wav" WAVE
  TRACK 07 AUDIO
    TITLE "Was machst du wenn die Stadt schlaeft"
    PERFORMER "Christina Stuermer"
    ISRC DEUM71300427
    INDEX 01 00:00:00
FILE "08 Amelie.wav" WAVE
  TRACK 08 AUDIO
    TITLE "Amelie"
    PERFORMER "Christina Stuermer"
    ISRC DEUM71300428
    INDEX 01 00:00:00
FILE "09 Unendlich.wav" WAVE
  TRACK 09 AUDIO
    TITLE "Unendlich"
    PERFORMER "Christina Stuermer"
    ISRC DEUM71300429
    INDEX 01 00:00:00
FILE "10 Wieviel wiegt ein Herzschlag.wav" WAVE
  TRACK 10 AUDIO
    TITLE "Wieviel wiegt ein Herzschlag "
    PERFORMER "Christina Stuermer"
    ISRC DEUM71300430
    INDEX 01 00:00:00
FILE "11 Weltbewegend.wav" WAVE
  TRACK 11 AUDIO
    TITLE "Weltbewegend"
    PERFORMER "Christina Stuermer"
    ISRC DEUM71300431
    INDEX 01 00:00:00
FILE "12 Ohne dich (ist alles nichts).wav" WAVE
  TRACK 12 AUDIO
    TITLE "Ohne dich (ist alles nichts)"
    PERFORMER "Christina Stuermer"
    ISRC DEUM71300432
    INDEX 01 00:00:00
Правила, инструкции, FAQ!!!
Торрент  Добавлен [26 мар 2019, 19:13] Скачать торрент Магнет ссылка
Скачать торрент
[ Размер 13.14 КБ / Просмотров 3 ]

Статус
Проверен 
 
Размер  298.13 МБ
Приватный: Нет (DHT включён)
.torrent скачан  0
 


     Отправить личное сообщение
   
Страница 1 из 1
Показать сообщения за:  Поле сортировки  
Начать новую тему Ответить на тему


Сейчас этот форум просматривают: нет зарегистрированных пользователей и гости: 0


Вы не можете начинать темы
Вы не можете отвечать на сообщения
Вы не можете редактировать свои сообщения
Вы не можете удалять свои сообщения
Вы не можете добавлять вложения

Перейти:  
cron