Начать новую тему Ответить на тему
Статистика раздачи
Размер: 291.61 МБ | Добавлен: 26 мар 2019, 18:43 | Скачали: 0
Сидеров: 0  [0 байт/сек]    Личеров: 0  [0 байт/сек]
Пред. тема | След. тема 

Автор
Сообщение

СообщениеДобавлено: 26 мар 2019, 18:43 

Ответить с цитатой 

Peter Furler - On Fire (2011)
Жанр: Pop Rock | Christian Rock
Год издания диска: 2011
Издатель (лейбл): Sparrow Records
Страна: South Australia, Australia
Аудиокодек: FLAC (*.flac)
Тип рипа: tracks+.cue
Битрейт аудио: lossless
Продолжительность: 39:52
Источник (релизер): what.cd (ChaosDestiny)
Наличие сканов в содержимом раздачи: нет
Треклист:
01. I'm Alive (3:47)
02. Reach (3:49)
03. Glory to the King (4:17)
04. Never Ending Love Song (3:33)
05. Matter of Faith (3:58)
06. All in Your Head (3:48)
07. Closer (feat. Steve Taylor and Some Other Band) (3:18)
08. Faster and Louder (3:14)
09. Psalm 23 (3:17)
10. Hold On (3:39)
11. Greater Is He (feat. Phil Joel and Bill Furler) (3:12)
Код:
Exact Audio Copy V1.0 beta 2 from 29. April 2011
EAC extraction logfile from 22. June 2011, 0:10
Peter Furler / On Fire
Used drive  : ATAPI   iHAS124   B   Adapter: 3  ID: 1
Read mode               : Secure
Utilize accurate stream : Yes
Defeat audio cache      : Yes
Make use of C2 pointers : No
Read offset correction                      : 6
Overread into Lead-In and Lead-Out          : No
Fill up missing offset samples with silence : Yes
Delete leading and trailing silent blocks   : No
Null samples used in CRC calculations       : Yes
Used interface                              : Native Win32 interface for Win NT & 2000
Gap handling                                : Appended to previous track
Used output format              : User Defined Encoder
Selected bitrate                : 1024 kBit/s
Quality                         : High
Add ID3 tag                     : No
Command line compressor         : C:\Users\Ergodicity\Downloads\flac-1.2.1-win\bin\flac.exe
Additional command line options : -8 -V -T "ARTIST=%artist%" -T "TITLE=%title%" -T "ALBUM=%albumtitle%" -T "DATE=%year%" -T "TRACKNUMBER=%tracknr%" -T "GENRE=%genre%" -T "PERFORMER=%albuminterpret%" -T "COMPOSER=%composer%" %haslyrics%--tag-from-file=LYRICS
TOC of the extracted CD
     Track |   Start  |  Length  | Start sector | End sector
    ---------------------------------------------------------
        1  |  0:00.00 |  3:46.70 |         0    |    17019
        2  |  3:46.70 |  3:49.18 |     17020    |    34212
        3  |  7:36.13 |  4:16.66 |     34213    |    53478
        4  | 11:53.04 |  3:33.05 |     53479    |    69458
        5  | 15:26.09 |  3:58.18 |     69459    |    87326
        6  | 19:24.27 |  3:47.60 |     87327    |   104411
        7  | 23:12.12 |  3:17.39 |    104412    |   119225
        8  | 26:29.51 |  3:14.13 |    119226    |   133788
        9  | 29:43.64 |  3:17.19 |    133789    |   148582
       10  | 33:01.08 |  3:39.23 |    148583    |   165030
       11  | 36:40.31 |  3:12.24 |    165031    |   179454
Track  1
     Filename C:\Users\Ergodicity\Music\Peter Furler\On Fire\01 - I'm Alive.wav
     Pre-gap length  0:00:02.00
     Peak level 100.0 %
     Extraction speed 3.8 X
     Track quality 100.0 %
     Test CRC 5CC7FF64
     Copy CRC 5CC7FF64
     Track not present in AccurateRip database
     Copy OK
Track  2
     Filename C:\Users\Ergodicity\Music\Peter Furler\On Fire\02 - Reach.wav
     Peak level 98.7 %
     Extraction speed 4.1 X
     Track quality 100.0 %
     Test CRC 00FBC1C9
     Copy CRC 00FBC1C9
     Track not present in AccurateRip database
     Copy OK
Track  3
     Filename C:\Users\Ergodicity\Music\Peter Furler\On Fire\03 - Glory to the King.wav
     Peak level 100.0 %
     Extraction speed 4.5 X
     Track quality 100.0 %
     Test CRC 7998088C
     Copy CRC 7998088C
     Track not present in AccurateRip database
     Copy OK
Track  4
     Filename C:\Users\Ergodicity\Music\Peter Furler\On Fire\04 - Never Ending Love Song.wav
     Peak level 100.0 %
     Extraction speed 4.6 X
     Track quality 100.0 %
     Test CRC 5F05D47D
     Copy CRC 5F05D47D
     Track not present in AccurateRip database
     Copy OK
Track  5
     Filename C:\Users\Ergodicity\Music\Peter Furler\On Fire\05 - Matter of Faith.wav
     Peak level 100.0 %
     Extraction speed 5.0 X
     Track quality 100.0 %
     Test CRC 7E11E41F
     Copy CRC 7E11E41F
     Track not present in AccurateRip database
     Copy OK
Track  6
     Filename C:\Users\Ergodicity\Music\Peter Furler\On Fire\06 - All in Your Head.wav
     Peak level 100.0 %
     Extraction speed 5.2 X
     Track quality 100.0 %
     Test CRC 331D06C7
     Copy CRC 331D06C7
     Track not present in AccurateRip database
     Copy OK
Track  7
     Filename C:\Users\Ergodicity\Music\Peter Furler\On Fire\07 - Closer (feat. Steve Taylor and Some Other Band).wav
     Peak level 100.0 %
     Extraction speed 4.2 X
     Track quality 99.9 %
     Test CRC 6C589A47
     Copy CRC 6C589A47
     Track not present in AccurateRip database
     Copy OK
Track  8
     Filename C:\Users\Ergodicity\Music\Peter Furler\On Fire\08 - Faster and Louder.wav
     Peak level 100.0 %
     Extraction speed 4.2 X
     Track quality 99.9 %
     Test CRC F1219844
     Copy CRC F1219844
     Track not present in AccurateRip database
     Copy OK
Track  9
     Filename C:\Users\Ergodicity\Music\Peter Furler\On Fire\09 - Psalm 23.wav
     Peak level 100.0 %
     Extraction speed 5.7 X
     Track quality 100.0 %
     Test CRC B4E58EEB
     Copy CRC B4E58EEB
     Track not present in AccurateRip database
     Copy OK
Track 10
     Filename C:\Users\Ergodicity\Music\Peter Furler\On Fire\10 - Hold On.wav
     Peak level 100.0 %
     Extraction speed 6.0 X
     Track quality 100.0 %
     Test CRC BF3D9060
     Copy CRC BF3D9060
     Track not present in AccurateRip database
     Copy OK
Track 11
     Filename C:\Users\Ergodicity\Music\Peter Furler\On Fire\11 - Greater Is He (feat. Phil Joel and Bill Furler).wav
     Peak level 100.0 %
     Extraction speed 6.0 X
     Track quality 100.0 %
     Test CRC D791C921
     Copy CRC D791C921
     Track not present in AccurateRip database
     Copy OK
None of the tracks are present in the AccurateRip database
No errors occurred
End of status report
==== Log checksum 02204726CD234D1CBFEC573B664F0E7778B44DB601CE94A60EF693E9E14EC7BD ====
Код:
REM GENRE "Christian Rock"
REM DATE 2011
REM DISCID 9E09580B
REM COMMENT "ExactAudioCopy v1.0b2"
PERFORMER "Peter Furler"
TITLE "On Fire"
FILE "01 - I'm Alive.wav" WAVE
  TRACK 01 AUDIO
    TITLE "I'm Alive"
    PERFORMER "Peter Furler"
    INDEX 01 00:00:00
FILE "02 - Reach.wav" WAVE
  TRACK 02 AUDIO
    TITLE "Reach"
    PERFORMER "Peter Furler"
    INDEX 01 00:00:00
FILE "03 - Glory to the King.wav" WAVE
  TRACK 03 AUDIO
    TITLE "Glory to the King"
    PERFORMER "Peter Furler"
    INDEX 01 00:00:00
FILE "04 - Never Ending Love Song.wav" WAVE
  TRACK 04 AUDIO
    TITLE "Never Ending Love Song"
    PERFORMER "Peter Furler"
    INDEX 01 00:00:00
FILE "05 - Matter of Faith.wav" WAVE
  TRACK 05 AUDIO
    TITLE "Matter of Faith"
    PERFORMER "Peter Furler"
    INDEX 01 00:00:00
FILE "06 - All in Your Head.wav" WAVE
  TRACK 06 AUDIO
    TITLE "All in Your Head"
    PERFORMER "Peter Furler"
    INDEX 01 00:00:00
FILE "07 - Closer (feat. Steve Taylor and Some Other Band).wav" WAVE
  TRACK 07 AUDIO
    TITLE "Closer (feat. Steve Taylor and Some Other Band)"
    PERFORMER "Peter Furler"
    INDEX 01 00:00:00
FILE "08 - Faster and Louder.wav" WAVE
  TRACK 08 AUDIO
    TITLE "Faster and Louder"
    PERFORMER "Peter Furler"
    INDEX 01 00:00:00
FILE "09 - Psalm 23.wav" WAVE
  TRACK 09 AUDIO
    TITLE "Psalm 23"
    PERFORMER "Peter Furler"
    INDEX 01 00:00:00
FILE "10 - Hold On.wav" WAVE
  TRACK 10 AUDIO
    TITLE "Hold On"
    PERFORMER "Peter Furler"
    INDEX 01 00:00:00
FILE "11 - Greater Is He (feat. Phil Joel and Bill Furler).wav" WAVE
  TRACK 11 AUDIO
    TITLE "Greater Is He (feat. Phil Joel and Bill Furler)"
    PERFORMER "Peter Furler"
    INDEX 01 00:00:00
Код:
AUDIOCHECKER v2.0 beta (build 457) - by Dester - opdester@freemail.hu
~~~~~~~~~~~~~~~~~~~~~~~~~~~~~~~~~~
-=== DO NOT EDIT THIS FILE! ===-
Path: ...\On Fire
01 -=- 01 - I'm Alive.flac -=- MPEG (79%)
02 -=- 02 - Reach.flac -=- CDDA (100%)
03 -=- 03 - Glory to the King.flac -=- CDDA (58%)
04 -=- 04 - Never Ending Love Song.flac -=- MPEG (90%)
05 -=- 05 - Matter of Faith.flac -=- MPEG (79%)
06 -=- 06 - All in Your Head.flac -=- MPEG (98%)
07 -=- 07 - Closer (feat. Steve Taylor and Some Other Band).flac -=- CDDA (100%)
08 -=- 08 - Faster and Louder.flac -=- MPEG (73%)
09 -=- 09 - Psalm 23.flac -=- CDDA (58%)
10 -=- 10 - Hold On.flac -=- MPEG (73%)
11 -=- 11 - Greater Is He (feat. Phil Joel and Bill Furler).flac -=- CDDA (100%)
Summary 47,64% CDDA
127231844
Правила, инструкции, FAQ!!!
Торрент  Добавлен [26 мар 2019, 18:43] Скачать торрент Магнет ссылка
Скачать торрент
[ Размер 12.67 КБ / Просмотров 1 ]

Статус
Проверен 
 
Размер  291.61 МБ
Приватный: Нет (DHT включён)
.torrent скачан  0
 


     Отправить личное сообщение
   
Страница 1 из 1
Показать сообщения за:  Поле сортировки  
Начать новую тему Ответить на тему


Сейчас этот форум просматривают: нет зарегистрированных пользователей и гости: 0


Вы не можете начинать темы
Вы не можете отвечать на сообщения
Вы не можете редактировать свои сообщения
Вы не можете удалять свои сообщения
Вы не можете добавлять вложения

Перейти:  
cron