Начать новую тему Ответить на тему
Статистика раздачи
Размер: 277.66 МБ | Добавлен: 26 мар 2019, 19:30 | Скачали: 0
Сидеров: 0  [0 байт/сек]    Личеров: 0  [0 байт/сек]
Пред. тема | След. тема 

Автор
Сообщение

СообщениеДобавлено: 26 мар 2019, 19:30 

Ответить с цитатой 

Jason Gray - Love Will Have the Final Word
Жанр: pop rock, christian rock, acoustic
Носитель: CD
Год издания: 2014
Издатель (лейбл): Unknown
Страна исполнителя: US
Аудиокодек: FLAC (*.flac)
Тип рипа: tracks+.cue
Битрейт аудио: lossless
Продолжительность: 00:41:35
Источник (релизер): Anonymous
Наличие сканов в содержимом раздачи: нет
Треклист:
01. Love Out Loud (3:34)
02. With Every Act of Love
(3:36)
03. Not Right Now (4:22)
04. Love Will Have the Final Word (3:41)
05. Love’s Not Done With You (3:22)
06. Begin Again (3:46)
07. I Don’t Know How (4:00)
08. If You Want to Love Someone (3:59)
09. Even This Will Be Made Beautiful (3:50)
10. The Best Days of My Life (3:48)
11. As I Am (3:31)
Код:
Exact Audio Copy V1.0 beta 3 from 29. August 2011
EAC extraction logfile from 5. September 2014, 16:29
Jason Gray / Love Will Have The Final Word
Used drive  : ASUS    DRW-24B1ST   c   Adapter: 0  ID: 0
Read mode               : Secure
Utilize accurate stream : Yes
Defeat audio cache      : Yes
Make use of C2 pointers : No
Read offset correction                      : 6
Overread into Lead-In and Lead-Out          : No
Fill up missing offset samples with silence : Yes
Delete leading and trailing silent blocks   : No
Null samples used in CRC calculations       : Yes
Used interface                              : Native Win32 interface for Win NT & 2000
Gap handling                                : Appended to previous track
Used output format              : User Defined Encoder
Selected bitrate                : 1024 kBit/s
Quality                         : High
Add ID3 tag                     : No
Command line compressor         : C:\Program Files (x86)\Exact Audio Copy\Flac\flac.exe
Additional command line options : -8 -V -T "ARTIST=%artist%" -T "TITLE=%title%" -T "ALBUM=%albumtitle%" -T "DATE=%year%" -T "TRACKNUMBER=%tracknr%" -T "GENRE=%genre%" -T "PERFORMER=%albuminterpret%" -T "COMPOSER=%composer%" %haslyrics%--tag-from-file=LYRICS="%lyricsfile%"%haslyrics% -T "ALBUMARTIST=%albumartist%" -T "DISCNUMBER=%cdnumber%" -T "TOTALDISCS=%totalcds%" -T "TOTALTRACKS=%numtracks%" -T "COMMENT=%comment%" %source% -o %dest%
TOC of the extracted CD
     Track |   Start  |  Length  | Start sector | End sector
    ---------------------------------------------------------
        1  |  0:00.00 |  3:34.63 |         0    |    16112
        2  |  3:34.63 |  3:36.41 |     16113    |    32353
        3  |  7:11.29 |  4:22.26 |     32354    |    52029
        4  | 11:33.55 |  3:41.71 |     52030    |    68675
        5  | 15:15.51 |  3:22.26 |     68676    |    83851
        6  | 18:38.02 |  3:46.34 |     83852    |   100835
        7  | 22:24.36 |  4:00.63 |    100836    |   118898
        8  | 26:25.24 |  3:59.22 |    118899    |   136845
        9  | 30:24.46 |  3:50.45 |    136846    |   154140
       10  | 34:15.16 |  3:48.11 |    154141    |   171251
       11  | 38:03.27 |  3:31.69 |    171252    |   187145
Track  1
     Filename D:\My Torrents\What.cd\My Rips\Jason Gray - Love Will Have The Final Word\Jason Gray - Love Will Have The Final Word (FLAC)\01. Laugh Out Loud.wav
     Pre-gap length  0:00:02.00
     Peak level 95.4 %
     Extraction speed 5.5 X
     Track quality 100.0 %
     Test CRC 32C4A011
     Copy CRC 32C4A011
     Accurately ripped (confidence 1)  [06BF7004]  (AR v2)
     Copy OK
Track  2
     Filename D:\My Torrents\What.cd\My Rips\Jason Gray - Love Will Have The Final Word\Jason Gray - Love Will Have The Final Word (FLAC)\02. With Every Act Of Love.wav
     Peak level 95.4 %
     Extraction speed 6.0 X
     Track quality 100.0 %
     Test CRC 48F69ABC
     Copy CRC 48F69ABC
     Accurately ripped (confidence 1)  [2CBC18F8]  (AR v2)
     Copy OK
Track  3
     Filename D:\My Torrents\What.cd\My Rips\Jason Gray - Love Will Have The Final Word\Jason Gray - Love Will Have The Final Word (FLAC)\03. Not Right Now.wav
     Peak level 95.4 %
     Extraction speed 6.7 X
     Track quality 100.0 %
     Test CRC 862E6398
     Copy CRC 862E6398
     Accurately ripped (confidence 1)  [C84FC4D6]  (AR v2)
     Copy OK
Track  4
     Filename D:\My Torrents\What.cd\My Rips\Jason Gray - Love Will Have The Final Word\Jason Gray - Love Will Have The Final Word (FLAC)\04. Love Will Have the Final Word.wav
     Peak level 95.4 %
     Extraction speed 6.9 X
     Track quality 100.0 %
     Test CRC 2B4EF4DB
     Copy CRC 2B4EF4DB
     Accurately ripped (confidence 1)  [33814E79]  (AR v2)
     Copy OK
Track  5
     Filename D:\My Torrents\What.cd\My Rips\Jason Gray - Love Will Have The Final Word\Jason Gray - Love Will Have The Final Word (FLAC)\05. Love's Not Done with You.wav
     Peak level 95.4 %
     Extraction speed 7.1 X
     Track quality 100.0 %
     Test CRC 86178F2F
     Copy CRC 86178F2F
     Accurately ripped (confidence 1)  [3057C6D3]  (AR v2)
     Copy OK
Track  6
     Filename D:\My Torrents\What.cd\My Rips\Jason Gray - Love Will Have The Final Word\Jason Gray - Love Will Have The Final Word (FLAC)\06. Begin Again.wav
     Peak level 95.4 %
     Extraction speed 7.6 X
     Track quality 100.0 %
     Test CRC 28F9C6C3
     Copy CRC 28F9C6C3
     Accurately ripped (confidence 1)  [1AD16B0E]  (AR v2)
     Copy OK
Track  7
     Filename D:\My Torrents\What.cd\My Rips\Jason Gray - Love Will Have The Final Word\Jason Gray - Love Will Have The Final Word (FLAC)\07. I Don't Know How.wav
     Peak level 95.4 %
     Extraction speed 8.0 X
     Track quality 100.0 %
     Test CRC DC855929
     Copy CRC DC855929
     Accurately ripped (confidence 1)  [D7E3750B]  (AR v2)
     Copy OK
Track  8
     Filename D:\My Torrents\What.cd\My Rips\Jason Gray - Love Will Have The Final Word\Jason Gray - Love Will Have The Final Word (FLAC)\08. If You Want to Love Someone.wav
     Peak level 95.4 %
     Extraction speed 8.3 X
     Track quality 100.0 %
     Test CRC 2203689C
     Copy CRC 2203689C
     Accurately ripped (confidence 1)  [784F46DC]  (AR v2)
     Copy OK
Track  9
     Filename D:\My Torrents\What.cd\My Rips\Jason Gray - Love Will Have The Final Word\Jason Gray - Love Will Have The Final Word (FLAC)\09. Even This Will Be Made Beautiful.wav
     Peak level 95.4 %
     Extraction speed 8.6 X
     Track quality 100.0 %
     Test CRC 415721BB
     Copy CRC 415721BB
     Accurately ripped (confidence 1)  [0F34F3A2]  (AR v2)
     Copy OK
Track 10
     Filename D:\My Torrents\What.cd\My Rips\Jason Gray - Love Will Have The Final Word\Jason Gray - Love Will Have The Final Word (FLAC)\10. The Best Days of My Life.wav
     Peak level 95.4 %
     Extraction speed 8.9 X
     Track quality 100.0 %
     Test CRC 6BE685A3
     Copy CRC 6BE685A3
     Accurately ripped (confidence 1)  [6081AA08]  (AR v2)
     Copy OK
Track 11
     Filename D:\My Torrents\What.cd\My Rips\Jason Gray - Love Will Have The Final Word\Jason Gray - Love Will Have The Final Word (FLAC)\11. As I Am.wav
     Peak level 94.9 %
     Extraction speed 9.1 X
     Track quality 100.0 %
     Test CRC 7834DE9F
     Copy CRC 7834DE9F
     Accurately ripped (confidence 1)  [659D2EB7]  (AR v2)
     Copy OK
All tracks accurately ripped
No errors occurred
End of status report
---- CUETools DB Plugin V2.1.3
[CTDB TOCID: 7PDL5Hbpn.x_b0Co_PZQ_e_BowE-] found, Submit result: 7PDL5Hbpn.x_b0Co_PZQ_e_BowE- has been confirmed
[363e2c08] (3/3) Accurately ripped
==== Log checksum 8E969AE6CC669BFFF56BC09E771F9F5C04F5C49990C939BBABBA32301A195A77 ====
Код:
REM GENRE "Christian Rock"
REM DATE 2014
REM DISCID 9109BF0B
REM COMMENT "ExactAudioCopy v1.0b3"
CATALOG 0829619119923
PERFORMER "Jason Gray"
TITLE "Love Will Have The Final Word"
FILE "01. Laugh Out Loud.wav" WAVE
  TRACK 01 AUDIO
    TITLE "Laugh Out Loud"
    PERFORMER "Jason Gray"
    ISRC US8391400016
    FLAGS DCP
    INDEX 01 00:00:00
FILE "02. With Every Act Of Love.wav" WAVE
  TRACK 02 AUDIO
    TITLE "With Every Act Of Love"
    PERFORMER "Jason Gray"
    ISRC US8391300053
    FLAGS DCP
    INDEX 01 00:00:00
FILE "03. Not Right Now.wav" WAVE
  TRACK 03 AUDIO
    TITLE "Not Right Now"
    PERFORMER "Jason Gray"
    ISRC US8391400018
    FLAGS DCP
    INDEX 01 00:00:00
FILE "04. Love Will Have the Final Word.wav" WAVE
  TRACK 04 AUDIO
    TITLE "Love Will Have the Final Word"
    PERFORMER "Jason Gray"
    ISRC US8391400019
    FLAGS DCP
    INDEX 01 00:00:00
FILE "05. Love's Not Done with You.wav" WAVE
  TRACK 05 AUDIO
    TITLE "Love's Not Done with You"
    PERFORMER "Jason Gray"
    ISRC US8391400022
    FLAGS DCP
    INDEX 01 00:00:00
FILE "06. Begin Again.wav" WAVE
  TRACK 06 AUDIO
    TITLE "Begin Again"
    PERFORMER "Jason Gray"
    ISRC US8391400021
    FLAGS DCP
    INDEX 01 00:00:00
FILE "07. I Don't Know How.wav" WAVE
  TRACK 07 AUDIO
    TITLE "I Don't Know How"
    PERFORMER "Jason Gray"
    ISRC US8391400020
    FLAGS DCP
    INDEX 01 00:00:00
FILE "08. If You Want to Love Someone.wav" WAVE
  TRACK 08 AUDIO
    TITLE "If You Want to Love Someone"
    PERFORMER "Jason Gray"
    ISRC US8391400023
    FLAGS DCP
    INDEX 01 00:00:00
FILE "09. Even This Will Be Made Beautiful.wav" WAVE
  TRACK 09 AUDIO
    TITLE "Even This Will Be Made Beautiful"
    PERFORMER "Jason Gray"
    ISRC US8391400024
    FLAGS DCP
    INDEX 01 00:00:00
FILE "10. The Best Days of My Life.wav" WAVE
  TRACK 10 AUDIO
    TITLE "The Best Days of My Life"
    PERFORMER "Jason Gray"
    ISRC US8391400025
    FLAGS DCP
    INDEX 01 00:00:00
FILE "11. As I Am.wav" WAVE
  TRACK 11 AUDIO
    TITLE "As I Am"
    PERFORMER "Jason Gray"
    ISRC US8391400026
    FLAGS DCP
    INDEX 01 00:00:00
Код:
AUDIOCHECKER v2.0 beta (build 457) - by Dester - opdester@freemail.hu
~~~~~~~~~~~~~~~~~~~~~~~~~~~~~~~~~~
-=== DO NOT EDIT THIS FILE! ===-
Path: ...\Jason Gray - Love Will Have The Final Word (FLAC)
01 -=- 01. Laugh Out Loud.flac -=- CDDA (100%)
02 -=- 02. With Every Act Of Love.flac -=- CDDA (100%)
03 -=- 03. Not Right Now.flac -=- CDDA (100%)
04 -=- 04. Love Will Have the Final Word.flac -=- CDDA (100%)
05 -=- 05. Love's Not Done with You.flac -=- CDDA (100%)
06 -=- 06. Begin Again.flac -=- CDDA (100%)
07 -=- 07. I Don't Know How.flac -=- CDDA (100%)
08 -=- 08. If You Want to Love Someone.flac -=- CDDA (100%)
09 -=- 09. Even This Will Be Made Beautiful.flac -=- CDDA (100%)
10 -=- 10. The Best Days of My Life.flac -=- CDDA (100%)
11 -=- 11. As I Am.flac -=- CDDA (100%)
Summary 100,00% CDDA
71104004
Правила, инструкции, FAQ!!!
Торрент  Добавлен [26 мар 2019, 19:30] Скачать торрент Магнет ссылка
Скачать торрент
[ Размер 12.33 КБ / Просмотров 2 ]

Статус
Проверен 
 
Размер  277.66 МБ
Приватный: Нет (DHT включён)
.torrent скачан  0
 


     Отправить личное сообщение
   
Страница 1 из 1
Показать сообщения за:  Поле сортировки  
Начать новую тему Ответить на тему


Сейчас этот форум просматривают: нет зарегистрированных пользователей и гости: 0


Вы не можете начинать темы
Вы не можете отвечать на сообщения
Вы не можете редактировать свои сообщения
Вы не можете удалять свои сообщения
Вы не можете добавлять вложения

Перейти:  
cron