Начать новую тему Ответить на тему
Статистика раздачи
Размер: 284.73 МБ | Добавлен: 26 мар 2019, 18:54 | Скачали: 0
Сидеров: 0  [0 байт/сек]    Личеров: 0  [0 байт/сек]
Пред. тема | След. тема 

Автор
Сообщение

СообщениеДобавлено: 26 мар 2019, 18:54 

Ответить с цитатой 

Lindsay McCaul / One More Step
Жанр: Pop, Rock, Christian & Gospel
Носитель: CD
Год издания: 2014
Издатель (лейбл): Centricity Music
Страна исполнителя (группы): США
Аудиокодек: FLAC (*.flac)
Тип рипа: tracks+.cue
Битрейт аудио: lossless
Продолжительность: 00:41:02
Источник (релизер): ?
Наличие сканов в содержимом раздачи: нет
Треклист:
01. Empty Handed (03:53)
02. A Little (03:04)
03. Jesus, Be (03:23)
04. One More Step (04:05)
05. With the Brokenhearted (feat Brandon Heath) (04:34)
06. Reaching Arms (03:36)
07. The in Between (03:17)
08. Mess Like Me (03:37)
09. Rule the World (03:30)
10. Love Won't Give Up (04:06)
11. More Certain Than the Stars (04:01)
Код:
Exact Audio Copy V1.0 beta 3 from 29. August 2011
EAC extraction logfile from 26. November 2014, 14:47
Lindsay McCaul / One More Step
Used drive  : Optiarc DVD RW AD-7930H   Adapter: 0  ID: 1
Read mode               : Secure
Utilize accurate stream : Yes
Defeat audio cache      : Yes
Make use of C2 pointers : No
Read offset correction                      : 48
Overread into Lead-In and Lead-Out          : No
Fill up missing offset samples with silence : Yes
Delete leading and trailing silent blocks   : No
Null samples used in CRC calculations       : Yes
Used interface                              : Native Win32 interface for Win NT & 2000
Gap handling                                : Appended to previous track
Used output format              : User Defined Encoder
Selected bitrate                : 1024 kBit/s
Quality                         : High
Add ID3 tag                     : No
Command line compressor         : C:\Program Files\Exact Audio Copy\Flac\flac.exe
Additional command line options : -8 -V -T "ARTIST=%artist%" -T "TITLE=%title%" -T "ALBUM=%albumtitle%" -T "DATE=%year%" -T "TRACKNUMBER=%tracknr%" -T "GENRE=%genre%" -T "PERFORMER=%albuminterpret%" -T "COMPOSER=%composer%" %haslyrics%--tag-from-file=LYRICS="%lyricsfile%"%haslyrics% -T "ALBUMARTIST=%albumartist%" -T "DISCNUMBER=%cdnumber%" -T "TOTALDISCS=%totalcds%" -T "TOTALTRACKS=%numtracks%" -T "COMMENT=%comment%" %source% -o %dest%
TOC of the extracted CD
     Track |   Start  |  Length  | Start sector | End sector
    ---------------------------------------------------------
        1  |  0:00.00 |  3:53.10 |         0    |    17484
        2  |  3:53.10 |  3:04.09 |     17485    |    31293
        3  |  6:57.19 |  3:23.17 |     31294    |    46535
        4  | 10:20.36 |  4:05.20 |     46536    |    64930
        5  | 14:25.56 |  4:33.62 |     64931    |    85467
        6  | 18:59.43 |  3:36.13 |     85468    |   101680
        7  | 22:35.56 |  3:17.10 |    101681    |   116465
        8  | 25:52.66 |  3:37.12 |    116466    |   132752
        9  | 29:30.03 |  3:29.64 |    132753    |   148491
       10  | 32:59.67 |  4:05.65 |    148492    |   166931
       11  | 37:05.57 |  4:00.46 |    166932    |   184977
Track  1
     Filename C:\EAC Rips\Lindsay McCaul - One More Step (2014) [FLAC]\01 - Empty Handed.wav
     Pre-gap length  0:00:02.00
     Peak level 95.4 %
     Extraction speed 2.5 X
     Track quality 100.0 %
     Test CRC C13751C6
     Copy CRC C13751C6
     Track not present in AccurateRip database
     Copy OK
Track  2
     Filename C:\EAC Rips\Lindsay McCaul - One More Step (2014) [FLAC]\02 - A Little.wav
     Peak level 95.4 %
     Extraction speed 2.6 X
     Track quality 100.0 %
     Test CRC 0E2C17EC
     Copy CRC 0E2C17EC
     Track not present in AccurateRip database
     Copy OK
Track  3
     Filename C:\EAC Rips\Lindsay McCaul - One More Step (2014) [FLAC]\03 - Jesus, Be.wav
     Peak level 95.4 %
     Extraction speed 2.8 X
     Track quality 100.0 %
     Test CRC 240D13BC
     Copy CRC 240D13BC
     Track not present in AccurateRip database
     Copy OK
Track  4
     Filename C:\EAC Rips\Lindsay McCaul - One More Step (2014) [FLAC]\04 - One More Step.wav
     Peak level 95.4 %
     Extraction speed 3.1 X
     Track quality 100.0 %
     Test CRC CADC37C4
     Copy CRC CADC37C4
     Track not present in AccurateRip database
     Copy OK
Track  5
     Filename C:\EAC Rips\Lindsay McCaul - One More Step (2014) [FLAC]\05 - With the Brokenhearted (feat Brandon Heath).wav
     Peak level 95.4 %
     Extraction speed 3.4 X
     Track quality 100.0 %
     Test CRC E38A5CE4
     Copy CRC E38A5CE4
     Track not present in AccurateRip database
     Copy OK
Track  6
     Filename C:\EAC Rips\Lindsay McCaul - One More Step (2014) [FLAC]\06 - Reaching Arms.wav
     Peak level 95.4 %
     Extraction speed 3.5 X
     Track quality 100.0 %
     Test CRC 6BE7F176
     Copy CRC 6BE7F176
     Track not present in AccurateRip database
     Copy OK
Track  7
     Filename C:\EAC Rips\Lindsay McCaul - One More Step (2014) [FLAC]\07 - The in Between.wav
     Peak level 95.4 %
     Extraction speed 3.5 X
     Track quality 100.0 %
     Test CRC 9450CD4E
     Copy CRC 9450CD4E
     Track not present in AccurateRip database
     Copy OK
Track  8
     Filename C:\EAC Rips\Lindsay McCaul - One More Step (2014) [FLAC]\08 - Mess Like Me.wav
     Peak level 95.4 %
     Extraction speed 3.7 X
     Track quality 100.0 %
     Test CRC 6DEBB774
     Copy CRC 6DEBB774
     Track not present in AccurateRip database
     Copy OK
Track  9
     Filename C:\EAC Rips\Lindsay McCaul - One More Step (2014) [FLAC]\09 - Rule the World.wav
     Peak level 95.4 %
     Extraction speed 3.8 X
     Track quality 100.0 %
     Test CRC CF6916B0
     Copy CRC CF6916B0
     Track not present in AccurateRip database
     Copy OK
Track 10
     Filename C:\EAC Rips\Lindsay McCaul - One More Step (2014) [FLAC]\10 - Love Won't Give Up.wav
     Peak level 95.4 %
     Extraction speed 4.1 X
     Track quality 100.0 %
     Test CRC 65F7B985
     Copy CRC 65F7B985
     Track not present in AccurateRip database
     Copy OK
Track 11
     Filename C:\EAC Rips\Lindsay McCaul - One More Step (2014) [FLAC]\11 - More Certain Than the Stars.wav
     Peak level 95.4 %
     Extraction speed 4.2 X
     Track quality 100.0 %
     Test CRC 7514F4CA
     Copy CRC 7514F4CA
     Track not present in AccurateRip database
     Copy OK
None of the tracks are present in the AccurateRip database
No errors occurred
End of status report
---- CUETools DB Plugin V2.1.3
[CTDB TOCID: uUdlzJhWbzizqvFMLSYjyqNYGxQ-] found, Submit result: uUdlzJhWbzizqvFMLSYjyqNYGxQ- has been confirmed
[c98401d7] (1/1) Accurately ripped
==== Log checksum 172A97F1E96C3D5FC08352DF4E1F90676860DA17C5658789C5247EEBD04D58FC ====
Код:
REM GENRE "Contemporary Christian"
REM DATE 2014
REM DISCID 9009A20B
REM COMMENT "ExactAudioCopy v1.0b3"
CATALOG 0829619121629
PERFORMER "Lindsay McCaul"
TITLE "One More Step"
FILE "01 - Empty Handed.wav" WAVE
  TRACK 01 AUDIO
    TITLE "Empty Handed"
    PERFORMER "Lindsay McCaul"
    ISRC US8391400092
    FLAGS DCP
    INDEX 01 00:00:00
FILE "02 - A Little.wav" WAVE
  TRACK 02 AUDIO
    TITLE "A Little"
    PERFORMER "Lindsay McCaul"
    ISRC US8391400073
    FLAGS DCP
    INDEX 01 00:00:00
FILE "03 - Jesus, Be.wav" WAVE
  TRACK 03 AUDIO
    TITLE "Jesus, Be"
    PERFORMER "Lindsay McCaul"
    ISRC US8391400115
    FLAGS DCP
    INDEX 01 00:00:00
FILE "04 - One More Step.wav" WAVE
  TRACK 04 AUDIO
    TITLE "One More Step"
    PERFORMER "Lindsay McCaul"
    ISRC US8391400075
    FLAGS DCP
    INDEX 01 00:00:00
FILE "05 - With the Brokenhearted (feat Brandon Heath).wav" WAVE
  TRACK 05 AUDIO
    TITLE "With the Brokenhearted (feat Brandon Heath)"
    PERFORMER "Lindsay McCaul"
    ISRC US8391400116
    FLAGS DCP
    INDEX 01 00:00:00
FILE "06 - Reaching Arms.wav" WAVE
  TRACK 06 AUDIO
    TITLE "Reaching Arms"
    PERFORMER "Lindsay McCaul"
    ISRC US8391400074
    FLAGS DCP
    INDEX 01 00:00:00
FILE "07 - The in Between.wav" WAVE
  TRACK 07 AUDIO
    TITLE "The in Between"
    PERFORMER "Lindsay McCaul"
    ISRC US8391400117
    FLAGS DCP
    INDEX 01 00:00:00
FILE "08 - Mess Like Me.wav" WAVE
  TRACK 08 AUDIO
    TITLE "Mess Like Me"
    PERFORMER "Lindsay McCaul"
    ISRC US8391400118
    FLAGS DCP
    INDEX 01 00:00:00
FILE "09 - Rule the World.wav" WAVE
  TRACK 09 AUDIO
    TITLE "Rule the World"
    PERFORMER "Lindsay McCaul"
    ISRC US8391400119
    FLAGS DCP
    INDEX 01 00:00:00
FILE "10 - Love Won't Give Up.wav" WAVE
  TRACK 10 AUDIO
    TITLE "Love Won't Give Up"
    PERFORMER "Lindsay McCaul"
    ISRC US8391400120
    FLAGS DCP
    INDEX 01 00:00:00
FILE "11 - More Certain Than the Stars.wav" WAVE
  TRACK 11 AUDIO
    TITLE "More Certain Than the Stars"
    PERFORMER "Lindsay McCaul"
    ISRC US8391400121
    FLAGS DCP
    INDEX 01 00:00:00
Код:
-----------------------
DON'T MODIFY THIS FILE
-----------------------
PERFORMER: auCDtect Task Manager, ver. 1.6.0 RC1 build 1.6.0.1
Copyright (c) 2008-2010 y-soft. All rights reserved
[url=http://y-soft.org]http://y-soft.org[/url]
ANALYZER: auCDtect: CD records authenticity detector, version 0.8.2
Copyright (c) 2004 Oleg Berngardt. All rights reserved.
Copyright (c) 2004 Alexander Djourik. All rights reserved.
FILE: 11 - More Certain Than the Stars.flac
  Size: 29214941 Hash: 989088B9C5B970183610C7A98BA5BFFF Accuracy: -m0
  Conclusion: CDDA 100%
  Signature: 788C6FF86FFA2C2195B0C88F5FB413B7FD0A8FC3
FILE: 10 - Love Won't Give Up.flac
  Size: 28946421 Hash: ED2DC1207D2D7B042465A8C31904E202 Accuracy: -m0
  Conclusion: CDDA 100%
  Signature: 053561C5E598566B5C0463886F3C12D66A11E596
FILE: 09 - Rule the World.flac
  Size: 27026885 Hash: B230DF13B6069106CE772F3099922359 Accuracy: -m0
  Conclusion: CDDA 100%
  Signature: 0E083473359682A9501A67E6E9B41ABD15A507B5
FILE: 08 - Mess Like Me.flac
  Size: 24259665 Hash: 3D0E4230EE8AA04D24BA7B53CF79F154 Accuracy: -m0
  Conclusion: CDDA 99%
  Signature: 0FBB51E9482182B843A4D27AE978CBF3077863B6
FILE: 07 - The in Between.flac
  Size: 25101316 Hash: 3BCED58E80EC7E2C5B51E7D77CDA8DCD Accuracy: -m0
  Conclusion: CDDA 100%
  Signature: C78E1591B71B6B3801FE8C13983B59D23B342FF8
FILE: 06 - Reaching Arms.flac
  Size: 29104904 Hash: 2D19268BDB911455E1CC000CB6581FFC Accuracy: -m0
  Conclusion: CDDA 100%
  Signature: 08002CA7177E7743B4D57D78A08F2B8975F10FC6
FILE: 05 - With the Brokenhearted (feat Brandon Heath).flac
  Size: 29864400 Hash: 5FAF73A38A91C54627FB054FA3208E22 Accuracy: -m0
  Conclusion: CDDA 100%
  Signature: 713E6A87AB546DE6BA08A53F3B760103BE03C543
FILE: 04 - One More Step.flac
  Size: 26045930 Hash: 31C242CF7E8C5B5C00AAD85B027E9035 Accuracy: -m0
  Conclusion: CDDA 100%
  Signature: EAF37430BE5600A68D442F8F09E624822F0C3288
FILE: 03 - Jesus, Be.flac
  Size: 25292079 Hash: 4072143A898E2ED352F0E1A39964BDBA Accuracy: -m0
  Conclusion: CDDA 100%
  Signature: 32667A1591DC3B5E17EBC233456B65C8ECBB775F
FILE: 02 - A Little.flac
  Size: 24411843 Hash: 2D0C06E8D782F62565B030A1C5E1833F Accuracy: -m0
  Conclusion: CDDA 100%
  Signature: DD79830B8348B5C0D75FE6CCAB9DBE60951EA1DB
FILE: 01 - Empty Handed.flac
  Size: 29235390 Hash: ACFDD3D4CE5D051AFFF3ACD319C24147 Accuracy: -m0
  Conclusion: CDDA 100%
  Signature: B1B61216505F6B12B32FF6A633944A81B423FEF7
Editorial Reviews
Singer-songwriter Lindsay McCaul's sophomore project and Centricity Music debut, ONE MORE STEP, is artistry born of a willingness to grapple honestly with the questions that arise at that crossroads of brokenness and grace. Tag-team produced by Brent Milligan (David Crowder, Steven Curtis Chapman) and Jeff Pardo (Josh Wilson, Matthew West), the eleven songs on ONE MORE STEP are thoughtful pop offerings that range from the lush and layered to the sparse and hauntingly lyrical.
The project as a whole faithfully chronicles the honest journey of a young woman who has learned that if the expressions of hope and joy are to be real and strong enough to hold us, then they can't shrink back from the sorrow, the grief, the confusion and the doubt that are also a real part of this shared pilgrim journey. The secret is that it's all woven together, and if God's grace meets us, it meets us in the very middle of all that messiness of life, circumstance and emotion. And it's from that place, and probably only from that place, that songs with the power to give real hope can be born.
Amazon
Правила, инструкции, FAQ!!!
Торрент  Добавлен [26 мар 2019, 18:54] Скачать торрент Магнет ссылка
Скачать торрент
[ Размер 12.44 КБ / Просмотров 0 ]

Статус
Проверен 
 
Размер  284.73 МБ
Приватный: Нет (DHT включён)
.torrent скачан  0
 


     Отправить личное сообщение
   
Страница 1 из 1
Показать сообщения за:  Поле сортировки  
Начать новую тему Ответить на тему


Сейчас этот форум просматривают: нет зарегистрированных пользователей и гости: 0


Вы не можете начинать темы
Вы не можете отвечать на сообщения
Вы не можете редактировать свои сообщения
Вы не можете удалять свои сообщения
Вы не можете добавлять вложения

Перейти:  
cron