Начать новую тему Ответить на тему
Статистика раздачи
Размер: 429.23 МБ | Добавлен: 26 мар 2019, 18:39 | Скачали: 0
Сидеров: 0  [0 байт/сек]    Личеров: 0  [0 байт/сек]
Пред. тема | След. тема 

Автор
Сообщение

СообщениеДобавлено: 26 мар 2019, 18:39 

Ответить с цитатой 

Chris Watzik / Weit weg
Жанр: Pop - Rock
Страна-производитель диска: Germany
Год издания: 2005
Издатель (лейбл): GEWE/IDM Musikproduktions GmbH- YLEE Music
Номер по каталогу: YLEE44408
Страна: Germany
Аудиокодек: FLAC (*.flac)
Тип рипа: tracks+.cue
Битрейт аудио: lossless
Продолжительность: 1:03:17.
Источник (релизер): clustert
Наличие сканов в содержимом раздачи: да
Треклист:
01. Waere das nicht schoen [0:04:51.34]
02. I was eh [0:02:57.04]
03. Robinson Crusoe [0:04:33.05]
04. Ohne dich [0:04:36.18]
05. Immer wieder [0:05:03.43]
06. Sommer komm [0:04:57.09]
07. Weil es ist so schцn da [0:04:08.67]
08. Jazznight [0:06:15.51]
09. Herbst im Land [0:03:44.70]
10. Ein freies Leben [0:05:39.44]
11. Jetzt steh ich da [0:03:44.73]
12. Geld Leben [0:05:26.05]
13. Die Nacht ist vorbei [0:04:10.05]
14. Aus und vorbei [0:03:09.17]
Код:
Exact Audio Copy V1.0 beta 3 from 29. August 2011
Отчёт EAC об извлечении, выполненном 11. сентября 2014, 0:46
Chris Watzik / Weit weg
Дисковод: ASUS    DRW-1814BLT   Adapter: 4  ID: 0
Режим чтения                 : Достоверность
Использование точного потока : Да
Отключение кэша аудио        : Да
Использование указателей C2  : Нет
Коррекция смещения при чтении                     : 6
Способность читать области Lead-in и Lead-out     : Нет
Заполнение пропущенных сэмплов тишиной            : Да
Удаление блоков с тишиной в начале и конце        : Нет
При вычислениях CRC использовались нулевые сэмплы : Да
Интерфейс                                         : Встроенный Win32-интерфейс для Win NT/2000
Обработка зазоров                                 : Добавлено к предыдущему треку
Выходной формат          : Пользовательский кодировщик
Выбранный битрейт        : 128 kBit/s
Качество                 : Высокий
Добавление ID3-тега      : Нет
Утилита сжатия           : C:\Program Files\Exact Audio Copy\Flac\flac.exe
Дополнительные параметры :  -V -8 -T "Genre=%genre%" -T "Artist=%artist%" -T "Title=%title%" -T "Album=%albumtitle%" -T "Date=%year%" -T "Tracknumber=%tracknr%" -T "Comment=EAC1.0b2 FLAC -8" %source%
TOC извлечённого CD
     Трек |   Старт  | Длительность | Начальный сектор | Конечный сектор
    ---------------------------------------------------------------------
       1  |  0:00.00 |    4:51.34   |           0      |      21858
       2  |  4:51.34 |    2:57.04   |       21859      |      35137
       3  |  7:48.38 |    4:33.05   |       35138      |      55617
       4  | 12:21.43 |    4:36.18   |       55618      |      76335
       5  | 16:57.61 |    5:03.43   |       76336      |      99103
       6  | 22:01.29 |    4:57.09   |       99104      |     121387
       7  | 26:58.38 |    4:08.67   |      121388      |     140054
       8  | 31:07.30 |    6:15.51   |      140055      |     168230
       9  | 37:23.06 |    3:44.70   |      168231      |     185100
      10  | 41:08.01 |    5:39.44   |      185101      |     210569
      11  | 46:47.45 |    3:44.73   |      210570      |     227442
      12  | 50:32.43 |    5:26.05   |      227443      |     251897
      13  | 55:58.48 |    4:10.05   |      251898      |     270652
      14  | 60:08.53 |    3:09.17   |      270653      |     284844
Трек  1
     Имя файла R:\Раздача 23\Chris Watzik - 2005 - Weit Weg\01 Waere das nicht schoen.wav
     Длина предзазора  0:00:02.00
     Пиковый уровень 98.4 %
     Скорость извлечения 5.5 X
     Качество трека 100.0 %
     CRC теста 04DF9B16
     CRC копии 04DF9B16
     Трек не обнаружен в базе AccurateRip
     Копирование... OK
Трек  2
     Имя файла R:\Раздача 23\Chris Watzik - 2005 - Weit Weg\02 I was eh.wav
     Длина предзазора  0:00:01.06
     Пиковый уровень 98.5 %
     Скорость извлечения 5.7 X
     Качество трека 100.0 %
     CRC теста 3194CAC4
     CRC копии 3194CAC4
     Трек не обнаружен в базе AccurateRip
     Копирование... OK
Трек  3
     Имя файла R:\Раздача 23\Chris Watzik - 2005 - Weit Weg\03 Robinson Crusoe.wav
     Длина предзазора  0:00:01.13
     Пиковый уровень 98.5 %
     Скорость извлечения 6.5 X
     Качество трека 100.0 %
     CRC теста A894878A
     CRC копии A894878A
     Трек не обнаружен в базе AccurateRip
     Копирование... OK
Трек  4
     Имя файла R:\Раздача 23\Chris Watzik - 2005 - Weit Weg\04 Ohne dich.wav
     Длина предзазора  0:00:01.36
     Пиковый уровень 95.2 %
     Скорость извлечения 5.3 X
     Качество трека 99.9 %
     CRC теста 5B858366
     CRC копии 5B858366
     Трек не обнаружен в базе AccurateRip
     Копирование... OK
Трек  5
     Имя файла R:\Раздача 23\Chris Watzik - 2005 - Weit Weg\05 Immer wieder.wav
     Длина предзазора  0:00:00.29
     Пиковый уровень 98.6 %
     Скорость извлечения 7.6 X
     Качество трека 100.0 %
     CRC теста EFF17D43
     CRC копии EFF17D43
     Трек не обнаружен в базе AccurateRip
     Копирование... OK
Трек  6
     Имя файла R:\Раздача 23\Chris Watzik - 2005 - Weit Weg\06 Sommer komm.wav
     Длина предзазора  0:00:01.33
     Пиковый уровень 98.4 %
     Скорость извлечения 6.1 X
     Качество трека 99.9 %
     CRC теста 187486F8
     CRC копии 187486F8
     Трек не обнаружен в базе AccurateRip
     Копирование... OK
Трек  7
     Имя файла R:\Раздача 23\Chris Watzik - 2005 - Weit Weg\07 Weil es ist so schцn da.wav
     Длина предзазора  0:00:01.72
     Пиковый уровень 98.8 %
     Скорость извлечения 8.2 X
     Качество трека 100.0 %
     CRC теста 30AD2B7D
     CRC копии 30AD2B7D
     Трек не обнаружен в базе AccurateRip
     Копирование... OK
Трек  8
     Имя файла R:\Раздача 23\Chris Watzik - 2005 - Weit Weg\08 Jazznight.wav
     Длина предзазора  0:00:02.48
     Пиковый уровень 98.4 %
     Скорость извлечения 9.1 X
     Качество трека 100.0 %
     CRC теста 6A6E091C
     CRC копии 6A6E091C
     Трек не обнаружен в базе AccurateRip
     Копирование... OK
Трек  9
     Имя файла R:\Раздача 23\Chris Watzik - 2005 - Weit Weg\09 Herbst im Land.wav
     Длина предзазора  0:00:02.71
     Пиковый уровень 98.6 %
     Скорость извлечения 8.9 X
     Качество трека 100.0 %
     CRC теста 005EA275
     CRC копии 005EA275
     Трек не обнаружен в базе AccurateRip
     Копирование... OK
Трек 10
     Имя файла R:\Раздача 23\Chris Watzik - 2005 - Weit Weg\10 Ein freies Leben.wav
     Длина предзазора  0:00:02.35
     Пиковый уровень 91.9 %
     Скорость извлечения 7.5 X
     Качество трека 99.9 %
     CRC теста 1C6027D2
     CRC копии 1C6027D2
     Трек не обнаружен в базе AccurateRip
     Копирование... OK
Трек 11
     Имя файла R:\Раздача 23\Chris Watzik - 2005 - Weit Weg\11 Jetzt steh ich da.wav
     Длина предзазора  0:00:02.74
     Пиковый уровень 98.8 %
     Скорость извлечения 9.6 X
     Качество трека 100.0 %
     CRC теста 5083E154
     CRC копии 5083E154
     Трек не обнаружен в базе AccurateRip
     Копирование... OK
Трек 12
     Имя файла R:\Раздача 23\Chris Watzik - 2005 - Weit Weg\12 Geld Leben.wav
     Длина предзазора  0:00:03.14
     Пиковый уровень 98.4 %
     Скорость извлечения 10.3 X
     Качество трека 100.0 %
     CRC теста 7C1B2B87
     CRC копии 7C1B2B87
     Трек не обнаружен в базе AccurateRip
     Копирование... OK
Трек 13
     Имя файла R:\Раздача 23\Chris Watzik - 2005 - Weit Weg\13 Die Nacht ist vorbei.wav
     Длина предзазора  0:00:04.14
     Пиковый уровень 93.4 %
     Скорость извлечения 10.3 X
     Качество трека 100.0 %
     CRC теста 9A059A33
     CRC копии 9A059A33
     Трек не обнаружен в базе AccurateRip
     Копирование... OK
Трек 14
     Имя файла R:\Раздача 23\Chris Watzik - 2005 - Weit Weg\14 Aus und vorbei.wav
     Длина предзазора  0:00:03.22
     Пиковый уровень 98.3 %
     Скорость извлечения 7.3 X
     Качество трека 99.9 %
     CRC теста 38481F14
     CRC копии 38481F14
     Трек не обнаружен в базе AccurateRip
     Копирование... OK
Ни одного трека нет в базе AccurateRip
Ошибок не произошло
Конец отчёта
==== Контрольная сумма отчёта 889395A1BD9344337CFF7F618A41316DE0BA6AE09CF3DA25808F24A408B230F4 ====
Код:
REM GENRE Rock
REM DATE 2005
REM DISCID AB0ED50E
REM COMMENT "ExactAudioCopy v1.0b3"
CATALOG 9005591444081
PERFORMER "Chris Watzik"
TITLE "Weit weg"
FILE "01 Waere das nicht schoen.wav" WAVE
  TRACK 01 AUDIO
    TITLE "Waere das nicht schoen"
    PERFORMER "Chris Watzik"
    INDEX 01 00:00:00
  TRACK 02 AUDIO
    TITLE "I was eh"
    PERFORMER "Chris Watzik"
    INDEX 00 04:50:28
FILE "02 I was eh.wav" WAVE
    INDEX 01 00:00:00
  TRACK 03 AUDIO
    TITLE "Robinson Crusoe"
    PERFORMER "Chris Watzik"
    INDEX 00 02:55:66
FILE "03 Robinson Crusoe.wav" WAVE
    INDEX 01 00:00:00
  TRACK 04 AUDIO
    TITLE "Ohne dich"
    PERFORMER "Chris Watzik"
    INDEX 00 04:31:44
FILE "04 Ohne dich.wav" WAVE
    INDEX 01 00:00:00
  TRACK 05 AUDIO
    TITLE "Immer wieder"
    PERFORMER "Chris Watzik"
    INDEX 00 04:35:64
FILE "05 Immer wieder.wav" WAVE
    INDEX 01 00:00:00
  TRACK 06 AUDIO
    TITLE "Sommer komm"
    PERFORMER "Chris Watzik"
    INDEX 00 05:02:10
FILE "06 Sommer komm.wav" WAVE
    INDEX 01 00:00:00
  TRACK 07 AUDIO
    TITLE "Weil es ist so schцn da"
    PERFORMER "Chris Watzik"
    INDEX 00 04:55:12
FILE "07 Weil es ist so schцn da.wav" WAVE
    INDEX 01 00:00:00
  TRACK 08 AUDIO
    TITLE "Jazznight"
    PERFORMER "Chris Watzik"
    INDEX 00 04:06:19
FILE "08 Jazznight.wav" WAVE
    INDEX 01 00:00:00
  TRACK 09 AUDIO
    TITLE "Herbst im Land"
    PERFORMER "Chris Watzik"
    INDEX 00 06:12:55
FILE "09 Herbst im Land.wav" WAVE
    INDEX 01 00:00:00
  TRACK 10 AUDIO
    TITLE "Ein freies Leben"
    PERFORMER "Chris Watzik"
    INDEX 00 03:42:35
FILE "10 Ein freies Leben.wav" WAVE
    INDEX 01 00:00:00
  TRACK 11 AUDIO
    TITLE "Jetzt steh ich da"
    PERFORMER "Chris Watzik"
    INDEX 00 05:36:45
FILE "11 Jetzt steh ich da.wav" WAVE
    INDEX 01 00:00:00
  TRACK 12 AUDIO
    TITLE "Geld Leben"
    PERFORMER "Chris Watzik"
    INDEX 00 03:41:59
FILE "12 Geld Leben.wav" WAVE
    INDEX 01 00:00:00
  TRACK 13 AUDIO
    TITLE "Die Nacht ist vorbei"
    PERFORMER "Chris Watzik"
    INDEX 00 05:21:66
FILE "13 Die Nacht ist vorbei.wav" WAVE
    INDEX 01 00:00:00
  TRACK 14 AUDIO
    TITLE "Aus und vorbei"
    PERFORMER "Chris Watzik"
    INDEX 00 04:06:58
FILE "14 Aus und vorbei.wav" WAVE
    INDEX 01 00:00:00
Правила, инструкции, FAQ!!!
Торрент  Добавлен [26 мар 2019, 18:39] Скачать торрент Магнет ссылка
Скачать торрент
[ Размер 18.56 КБ / Просмотров 5 ]

Статус
Проверен 
 
Размер  429.23 МБ
Приватный: Нет (DHT включён)
.torrent скачан  0
 


     Отправить личное сообщение
   
Страница 1 из 1
Показать сообщения за:  Поле сортировки  
Начать новую тему Ответить на тему


Сейчас этот форум просматривают: нет зарегистрированных пользователей и гости: 0


Вы не можете начинать темы
Вы не можете отвечать на сообщения
Вы не можете редактировать свои сообщения
Вы не можете удалять свои сообщения
Вы не можете добавлять вложения

Перейти:  
cron