Начать новую тему Ответить на тему
Статистика раздачи
Размер: 527.26 МБ | Добавлен: 26 мар 2019, 20:25 | Скачали: 1
Сидеров: 2  [0 байт/сек]    Личеров: 0  [0 байт/сек]
Пред. тема | След. тема 

Автор
Сообщение

СообщениеДобавлено: 26 мар 2019, 20:25 

Ответить с цитатой 

Chris Norman(ex-Smokie) - Music Box ( Super Best Pop ) [Bootleg !!!]
Жанр: Pop,Rock
Год выпуска диска: 2002
Производитель диска: Россия
Аудио кодек: APE
Тип рипа: image+.cue
Битрейт аудио: lossless
Продолжительность: 01:12:40
Треклист:
01 - Hunters Of The Night [4:04]
02 - Some Hearts Are Diamonds [3:42]
03 - Here Comes The Night [4:45]
04 - Living Next Door To Alice [3:27]
05 - Broken Heroes [7:30]
06 - Independent Girl [3:13]
07 - It's A Tragedy [3:41]
08 - Midnight Lady [4:08]
09 - Love Is A Burning Flame [5:08]
11 - Seven Year Ache [3:57]
12 - For You [3:58]
13 - Love Is A Battlefield [4:27]
14 - No Arms Can Ever Hold You [3:43]
15 - Till The Night We'll Meet Again [4:11]
16 - Trouble On Her Mind [4:50]
17 - Love Is ... [3:29]
Код:
Exact Audio Copy V0.99 prebeta 5 from 4. May 2009
Отчёт EAC об извлечении, выполненном 5. августа 2010, 15:13
Chris Norman / Music Box ( Super Best Pop )
Дисковод: HL-DT-STDVD-RAM GH22NS30   Adapter: 3  ID: 0
Режим чтения                 : Достоверность
Использование точного потока : Да
Отключение кэша аудио        : Да
Использование указателей C2  : Нет
Коррекция смещения при чтении                     : 102
Способность читать области Lead-in и Lead-out     : Нет
Заполнение пропущенных сэмплов тишиной            : Да
Удаление блоков с тишиной в начале и конце        : Нет
При вычислениях CRC использовались нулевые сэмплы : Да
Интерфейс                                         : Встроенный Win32-интерфейс для Win NT/2000
Выходной формат : Внутренние WAV-операции
Формат сэмплов  : 44.100 Гц; 16 бит; стерео
TOC извлечённого CD
     Трек |   Старт  | Длительность | Начальный сектор | Конечный сектор
    ---------------------------------------------------------------------
       1  |  0:00.00 |    4:04.03   |           0      |      18302
       2  |  4:04.03 |    3:42.30   |       18303      |      34982
       3  |  7:46.33 |    4:44.60   |       34983      |      56342
       4  | 12:31.18 |    3:27.22   |       56343      |      71889
       5  | 15:58.40 |    7:30.03   |       71890      |     105642
       6  | 23:28.43 |    3:13.08   |      105643      |     120125
       7  | 26:41.51 |    3:41.13   |      120126      |     136713
       8  | 30:22.64 |    4:07.51   |      136714      |     155289
       9  | 34:30.40 |    5:08.25   |      155290      |     178414
      10  | 39:38.65 |    4:25.34   |      178415      |     198323
      11  | 44:04.24 |    3:57.34   |      198324      |     216132
      12  | 48:01.58 |    3:58.30   |      216133      |     234012
      13  | 52:00.13 |    4:26.58   |      234013      |     254020
      14  | 56:26.71 |    3:43.07   |      254021      |     270752
      15  | 60:10.03 |    4:11.30   |      270753      |     289607
      16  | 64:21.33 |    4:49.59   |      289608      |     311341
      17  | 69:11.17 |    3:29.01   |      311342      |     327017
Характеристики диапазона извлечения и сообщения об ошибках
Выбранный диапазон
     Имя файла C:\Users\EDDYSS@N\Desktop\Chris Norman(2002) - Music Box(Super Best Pop)[lossless]\Chris Norman - Music Box ( Super Best Pop ).wav
     Пиковый уровень 96.6 %
     Качество диапазона 100.0 %
     CRC теста 79C1AFE6
     CRC копии 79C1AFE6
     Копирование... OK
Ошибок не произошло
AccurateRip: сводка
Трек  1  нет в базе данных
Трек  2  нет в базе данных
Трек  3  нет в базе данных
Трек  4  нет в базе данных
Трек  5  нет в базе данных
Трек  6  нет в базе данных
Трек  7  нет в базе данных
Трек  8  нет в базе данных
Трек  9  нет в базе данных
Трек 10  нет в базе данных
Трек 11  нет в базе данных
Трек 12  нет в базе данных
Трек 13  нет в базе данных
Трек 14  нет в базе данных
Трек 15  нет в базе данных
Трек 16  нет в базе данных
Трек 17  нет в базе данных
Ни одного трека нет в базе AccurateRip
Конец отчёта
Код:
AUDIOCHECKER v2.0 beta (build 457) - by Dester - opdester@freemail.hu
~~~~~~~~~~~~~~~~~~~~~~~~~~~~~~~~~~
Начато: четверг, 05. 08. 2010. - 15:17.15
Найдено файлов: 1
1 -===- C:\Users\EDDYSS@N\Desktop\Chris Norman(2002) - Music Box(Super Best Pop)[lossless]\Chris Norman - Music Box ( Super Best Pop ).ape
  Извлечение успешно выполнено
  Заключение: этот трек - CDDA с вероятностью 100%
  Временный файл удалён.
Завершено: четверг, 05. 08. 2010. - 15:22.09 (Время операции: 0:04.53)
Мои раздачи

Рип свой , снятый в режиме Test&Copy + сканы обложек и диска 600 dpi !!!

Приятного прослушивания и не забываем говорить спасибо !!!:wink:
Правила, инструкции, FAQ!!!
Торрент  Добавлен [26 мар 2019, 20:25] Скачать торрент Магнет ссылка
Скачать торрент
[ Размер 11.26 КБ / Просмотров 3 ]

Статус
Проверен 
 
Размер  527.26 МБ
Приватный: Нет (DHT включён)
.torrent скачан  1
 


     Отправить личное сообщение
   
Страница 1 из 1
Показать сообщения за:  Поле сортировки  
Начать новую тему Ответить на тему


Сейчас этот форум просматривают: нет зарегистрированных пользователей и гости: 0


Вы не можете начинать темы
Вы не можете отвечать на сообщения
Вы не можете редактировать свои сообщения
Вы не можете удалять свои сообщения
Вы не можете добавлять вложения

Перейти:  
cron