Начать новую тему Ответить на тему
Статистика раздачи
Размер: 388.57 МБ | Добавлен: 01 янв 2020, 23:08 | Скачали: 0
Сидеров: 0  [0 байт/сек]    Личеров: 0  [0 байт/сек]
Пред. тема | След. тема 

Автор
Сообщение

СообщениеДобавлено: 01 янв 2020, 23:08 

Ответить с цитатой 

Rob de Nijs / De Band, De Zanger En Het Meisje
Жанр: Pop Rock, Chanson
Носитель: CD
Страна-производитель диска (релиза): Netherlands
Год издания: 1996
Издатель (лейбл): EMI
Номер по каталогу: 7243 8 37849 2 9
Аудиокодек: FLAC (*.flac)
Тип рипа: tracks+.cue
Продолжительность: 00:56:39
Источник: локальная сеть
Наличие сканов в содержимом раздачи: да
Треклист:
1 Geef Niet Op (Ain't Going Down-Till The Sun Comes Up)
2 Het Meisje, De Zanger En De Band
3 Een Gelukkig Mens (Wonderful Life)
4 In De Verleiding (Into Temptation)
5 Banger Hart
6 Harley Song
7 De Donder Rolt (The Thunder Rolls)
8 Lucinde
9 Backstage Blues
10 Geschreven In De Wind (Love Is All Around)
11 Ik Kom Eraan
12 De Tijd Staat Stil
Код:
Exact Audio Copy V1.0 beta 3 from 29. August 2011
EAC extraction logfile from 22. April 2012, 20:57
Rob De Nijs / De Band, De Zanger En Het Meisje
Used drive  :         DVD+RW RW5240   Adapter: 0  ID: 0
Read mode               : Secure
Utilize accurate stream : Yes
Defeat audio cache      : Yes
Make use of C2 pointers : No
Read offset correction                      : 91
Overread into Lead-In and Lead-Out          : No
Fill up missing offset samples with silence : Yes
Delete leading and trailing silent blocks   : No
Null samples used in CRC calculations       : Yes
Used interface                              : Native Win32 interface for Win NT & 2000
Gap handling                                : Appended to previous track
Used output format              : User Defined Encoder
Selected bitrate                : 320 kBit/s
Quality                         : High
Add ID3 tag                     : No
Command line compressor         : C:\Program Files (x86)\Exact Audio Copy\FLAC\FLAC.EXE
Additional command line options : -V -8 -T "artist=%artist%" -T "title=%title%" -T "album=%albumtitle%" -T "date=%year%" -T "tracknumber=%tracknr%" -T "genre=%genre%" %source%
TOC of the extracted CD
     Track |   Start  |  Length  | Start sector | End sector
    ---------------------------------------------------------
        1  |  0:00.32 |  3:58.40 |        32    |    17921
        2  |  3:58.72 |  3:49.70 |     17922    |    35166
        3  |  7:48.67 |  5:18.48 |     35167    |    59064
        4  | 13:07.40 |  4:57.57 |     59065    |    81396
        5  | 18:05.22 |  4:34.45 |     81397    |   101991
        6  | 22:39.67 |  5:15.33 |    101992    |   125649
        7  | 27:55.25 |  3:29.02 |    125650    |   141326
        8  | 31:24.27 |  4:28.58 |    141327    |   161484
        9  | 35:53.10 |  4:29.00 |    161485    |   181659
       10  | 40:22.10 |  3:32.25 |    181660    |   197584
       11  | 43:54.35 |  3:51.35 |    197585    |   214944
       12  | 47:45.70 |  4:37.47 |    214945    |   235766
       13  | 52:23.42 |  4:22.33 |    235767    |   255449
Track  1
     Filename D:\Downloads\Rob De Nijs - De Band, De Zanger En Het Meisje 1996 Flac\01 Geef Niet Op.wav
     Pre-gap length  0:00:02.42
     Peak level 99.2 %
     Extraction speed 4.7 X
     Track quality 100.0 %
     Test CRC A0D572B3
     Copy CRC A0D572B3
     Accurately ripped (confidence 7)  [37AAB71A]  (AR v1)
     Copy OK
Track  2
     Filename D:\Downloads\Rob De Nijs - De Band, De Zanger En Het Meisje 1996 Flac\02 Het Meisje, De Zanger En De Band.wav
     Peak level 99.2 %
     Extraction speed 5.1 X
     Track quality 100.0 %
     Test CRC F7DFFE79
     Copy CRC F7DFFE79
     Accurately ripped (confidence 7)  [D6055801]  (AR v1)
     Copy OK
Track  3
     Filename D:\Downloads\Rob De Nijs - De Band, De Zanger En Het Meisje 1996 Flac\03 Een Gelukkig Mens.wav
     Peak level 97.3 %
     Extraction speed 5.8 X
     Track quality 100.0 %
     Test CRC CEDBD606
     Copy CRC CEDBD606
     Accurately ripped (confidence 7)  [B6D2498A]  (AR v1)
     Copy OK
Track  4
     Filename D:\Downloads\Rob De Nijs - De Band, De Zanger En Het Meisje 1996 Flac\04 In De Verleiding.wav
     Pre-gap length  0:00:02.24
     Peak level 92.2 %
     Extraction speed 6.3 X
     Track quality 100.0 %
     Test CRC D756619B
     Copy CRC D756619B
     Accurately ripped (confidence 7)  [B065DAE8]  (AR v1)
     Copy OK
Track  5
     Filename D:\Downloads\Rob De Nijs - De Band, De Zanger En Het Meisje 1996 Flac\05 Banger Hart.wav
     Peak level 91.8 %
     Extraction speed 6.7 X
     Track quality 100.0 %
     Test CRC 41092EB4
     Copy CRC 41092EB4
     Accurately ripped (confidence 7)  [1117439A]  (AR v1)
     Copy OK
Track  6
     Filename D:\Downloads\Rob De Nijs - De Band, De Zanger En Het Meisje 1996 Flac\06 Harley Song.wav
     Pre-gap length  0:00:01.53
     Peak level 97.3 %
     Extraction speed 7.2 X
     Track quality 100.0 %
     Test CRC 9B2B7B09
     Copy CRC 9B2B7B09
     Accurately ripped (confidence 7)  [5C5423F8]  (AR v1)
     Copy OK
Track  7
     Filename D:\Downloads\Rob De Nijs - De Band, De Zanger En Het Meisje 1996 Flac\07 De Donder Rolt.wav
     Pre-gap length  0:00:01.44
     Peak level 99.2 %
     Extraction speed 7.1 X
     Track quality 100.0 %
     Test CRC 72D19A81
     Copy CRC 72D19A81
     Accurately ripped (confidence 7)  [6065157F]  (AR v1)
     Copy OK
Track  8
     Filename D:\Downloads\Rob De Nijs - De Band, De Zanger En Het Meisje 1996 Flac\08 Lucinde.wav
     Peak level 99.2 %
     Extraction speed 7.7 X
     Track quality 100.0 %
     Test CRC 3D8813B7
     Copy CRC 3D8813B7
     Accurately ripped (confidence 7)  [E0584FE1]  (AR v1)
     Copy OK
Track  9
     Filename D:\Downloads\Rob De Nijs - De Band, De Zanger En Het Meisje 1996 Flac\09 Backstage Blues.wav
     Peak level 99.2 %
     Extraction speed 8.0 X
     Track quality 100.0 %
     Test CRC 5992219C
     Copy CRC 5992219C
     Accurately ripped (confidence 7)  [053BB2EF]  (AR v1)
     Copy OK
Track 10
     Filename D:\Downloads\Rob De Nijs - De Band, De Zanger En Het Meisje 1996 Flac\10 Geschreven In De Wind.wav
     Peak level 95.4 %
     Extraction speed 8.0 X
     Track quality 100.0 %
     Test CRC 7DE0E989
     Copy CRC 7DE0E989
     Accurately ripped (confidence 7)  [308BC29D]  (AR v1)
     Copy OK
Track 11
     Filename D:\Downloads\Rob De Nijs - De Band, De Zanger En Het Meisje 1996 Flac\11 Ik Kom Eraan.wav
     Peak level 99.2 %
     Extraction speed 8.4 X
     Track quality 100.0 %
     Test CRC 2A270A87
     Copy CRC 2A270A87
     Accurately ripped (confidence 7)  [7199E5C0]  (AR v1)
     Copy OK
Track 12
     Filename D:\Downloads\Rob De Nijs - De Band, De Zanger En Het Meisje 1996 Flac\12 De Tijd Staat Stil.wav
     Pre-gap length  0:00:03.80
     Peak level 99.2 %
     Extraction speed 8.8 X
     Track quality 100.0 %
     Test CRC BBD56899
     Copy CRC BBD56899
     Accurately ripped (confidence 7)  [9CBA5351]  (AR v1)
     Copy OK
Track 13
     Filename D:\Downloads\Rob De Nijs - De Band, De Zanger En Het Meisje 1996 Flac\13 Banger Hart (Radio Mix).wav
     Pre-gap length  0:00:03.66
     Peak level 97.2 %
     Extraction speed 9.0 X
     Track quality 100.0 %
     Test CRC CB7E5C0E
     Copy CRC CB7E5C0E
     Accurately ripped (confidence 7)  [24B57ADD]  (AR v1)
     Copy OK
All tracks accurately ripped
No errors occurred
End of status report
==== Log checksum DF60869AD3D854D4049EFAE3407E4379E12B99C41F4464937BDC83DBD87DC482 ====
Код:
REM GENRE Nederlandstalig
REM DATE 1996
REM DISCID C00D4E0D
REM COMMENT "ExactAudioCopy v1.0b3"
FILE "01 Geef Niet Op.wav" WAVE
  TRACK 01 AUDIO
    PREGAP 00:00:32
    INDEX 01 00:00:00
FILE "02 Het Meisje, De Zanger En De Band.wav" WAVE
  TRACK 02 AUDIO
    INDEX 01 00:00:00
FILE "03 Een Gelukkig Mens.wav" WAVE
  TRACK 03 AUDIO
    INDEX 01 00:00:00
  TRACK 04 AUDIO
    INDEX 00 05:16:30
FILE "04 In De Verleiding.wav" WAVE
    INDEX 01 00:00:00
FILE "05 Banger Hart.wav" WAVE
  TRACK 05 AUDIO
    INDEX 01 00:00:00
  TRACK 06 AUDIO
    INDEX 00 04:33:05
FILE "06 Harley Song.wav" WAVE
    INDEX 01 00:00:00
  TRACK 07 AUDIO
    INDEX 00 05:14:00
FILE "07 De Donder Rolt.wav" WAVE
    INDEX 01 00:00:00
FILE "08 Lucinde.wav" WAVE
  TRACK 08 AUDIO
    INDEX 01 00:00:00
FILE "09 Backstage Blues.wav" WAVE
  TRACK 09 AUDIO
    INDEX 01 00:00:00
FILE "10 Geschreven In De Wind.wav" WAVE
  TRACK 10 AUDIO
    INDEX 01 00:00:00
FILE "11 Ik Kom Eraan.wav" WAVE
  TRACK 11 AUDIO
    INDEX 01 00:00:00
  TRACK 12 AUDIO
    INDEX 00 03:47:50
FILE "12 De Tijd Staat Stil.wav" WAVE
    INDEX 01 00:00:00
  TRACK 13 AUDIO
    INDEX 00 04:33:72
FILE "13 Banger Hart (Radio Mix).wav" WAVE
    INDEX 01 00:00:00
Правила, инструкции, FAQ!!!
Торрент  Добавлен [01 янв 2020, 23:08] Скачать торрент Магнет ссылка
Скачать торрент
[ Размер 16.74 КБ / Просмотров 3 ]

Статус
Проверен 
 
Размер  388.57 МБ
Приватный: Нет (DHT включён)
.torrent скачан  0
 


     Отправить личное сообщение
   
Страница 1 из 1
Показать сообщения за:  Поле сортировки  
Начать новую тему Ответить на тему


Сейчас этот форум просматривают: нет зарегистрированных пользователей и гости: 0


Вы не можете начинать темы
Вы не можете отвечать на сообщения
Вы не можете редактировать свои сообщения
Вы не можете удалять свои сообщения
Вы не можете добавлять вложения

Перейти:  
cron