Начать новую тему Ответить на тему
Статистика раздачи
Размер: 346.1 МБ | Добавлен: 26 мар 2019, 21:02 | Скачали: 0
Сидеров: 0  [0 байт/сек]    Личеров: 0  [0 байт/сек]
Пред. тема | След. тема 

Автор
Сообщение

СообщениеДобавлено: 26 мар 2019, 21:02 

Ответить с цитатой 

Carla Bruni / A L'Olympia
Жанр: Pop-Rock, Chanson
Носитель: CD
Год издания: 2014
Издатель (лейбл): Barclay
Страна исполнителя (группы): France
Аудиокодек: FLAC (*.flac)
Тип рипа: tracks+.cue
Битрейт аудио: lossless
Продолжительность: 1:01:15
Источник (релизер): what.cd
Наличие сканов в содержимом раздачи: нет
Треклист:
01 Déranger Les Pierres 4:10
02 L'Amoureuse 2:50
03 Le Plus Beau Du Quartier 3:42
04 Tout Le Monde 3:20
05 Little French Song 2:54
06 Dolce Francia 4:28
07 On Serait Seuls Au Monde 2:50
08 J'Arrive À Toi 3:46
09 Si La Photo Est Bonne 3:00
10 All The Best Featuring – Marianne Faithfull 3:08
11 Tu Es Ma Came 2:49
12 Salut Marin 3:50
13 Darling 3:09
14 Raphaël 2:38
15 Chez Keith Et Anita 3:18
16 Mon Raymond 3:09
17 Le Temps Perdu 3:09
18 Quelqu'un M'a Dit 3:19
19 La Dernière Minute 1:39
Код:
Exact Audio Copy V1.0 beta 3 from 29. August 2011
EAC extraction logfile from 23. December 2014, 18:33
Carla Bruni / A L'Olympia
Used drive  : ATAPI   DVD A  DH16AASH   Adapter: 1  ID: 1
Read mode               : Secure
Utilize accurate stream : Yes
Defeat audio cache      : Yes
Make use of C2 pointers : No
Read offset correction                      : 6
Overread into Lead-In and Lead-Out          : No
Fill up missing offset samples with silence : Yes
Delete leading and trailing silent blocks   : No
Null samples used in CRC calculations       : Yes
Used interface                              : Native Win32 interface for Win NT & 2000
Gap handling                                : Appended to previous track
Used output format              : User Defined Encoder
Selected bitrate                : 1024 kBit/s
Quality                         : High
Add ID3 tag                     : No
Command line compressor         : C:\Program Files (x86)\FLAC\flac.exe
Additional command line options : -8 -V -T "ARTIST=%artist%" -T "TITLE=%title%" -T "ALBUM=%albumtitle%" -T "DATE=%year%" -T "TRACKNUMBER=%tracknr%" -T "GENRE=%genre%" -T "PERFORMER=%albuminterpret%" -T "COMPOSER=%composer%" %haslyrics%--tag-from-file=LYRICS="%lyricsfile%"%haslyrics% -T "ALBUMARTIST=%albumartist%" -T "ALBUM ARTIST=%albumartist%" -T "DISCNUMBER=%cdnumber%" -T "TOTALDISCS=%totalcds%" -T "TOTALTRACKS=%numtracks%" -T "COMMENT=EAC V1.0 beta 2, Secure Mode, Test & Copy, AccurateRip, FLAC -8" %source% -o %dest%
TOC of the extracted CD
     Track |   Start  |  Length  | Start sector | End sector
    ---------------------------------------------------------
        1  |  0:00.00 |  4:10.08 |         0    |    18757
        2  |  4:10.08 |  2:50.08 |     18758    |    31515
        3  |  7:00.16 |  3:42.31 |     31516    |    48196
        4  | 10:42.47 |  3:20.18 |     48197    |    63214
        5  | 14:02.65 |  2:54.35 |     63215    |    76299
        6  | 16:57.25 |  4:28.03 |     76300    |    96402
        7  | 21:25.28 |  2:50.50 |     96403    |   109202
        8  | 24:16.03 |  3:46.11 |    109203    |   126163
        9  | 28:02.14 |  3:00.06 |    126164    |   139669
       10  | 31:02.20 |  3:08.03 |    139670    |   153772
       11  | 34:10.23 |  2:49.45 |    153773    |   166492
       12  | 36:59.68 |  3:50.70 |    166493    |   183812
       13  | 40:50.63 |  3:09.55 |    183813    |   198042
       14  | 44:00.43 |  2:38.04 |    198043    |   209896
       15  | 46:38.47 |  3:18.02 |    209897    |   224748
       16  | 49:56.49 |  3:09.52 |    224749    |   238975
       17  | 53:06.26 |  3:09.29 |    238976    |   253179
       18  | 56:15.55 |  3:19.13 |    253180    |   268117
       19  | 59:34.68 |  1:39.50 |    268118    |   275592
Track  1
     Filename F:\Converted Flac\01 Déranger Les Pierres.wav
     Pre-gap length  0:00:02.00
     Peak level 98.3 %
     Extraction speed 2.1 X
     Track quality 100.0 %
     Test CRC 7D96AC0F
     Copy CRC 7D96AC0F
     Track not present in AccurateRip database
     Copy OK
Track  2
     Filename F:\Converted Flac\02 L'Amoureuse.wav
     Peak level 99.8 %
     Extraction speed 1.9 X
     Track quality 100.0 %
     Test CRC A273A49C
     Copy CRC A273A49C
     Track not present in AccurateRip database
     Copy OK
Track  3
     Filename F:\Converted Flac\03 Le Plus Beau Du Quartier.wav
     Peak level 98.1 %
     Extraction speed 1.3 X
     Track quality 99.9 %
     Test CRC 75E2C99C
     Copy CRC 75E2C99C
     Track not present in AccurateRip database
     Copy OK
Track  4
     Filename F:\Converted Flac\04 Tout Le Monde.wav
     Peak level 98.5 %
     Extraction speed 2.0 X
     Track quality 100.0 %
     Test CRC 043A6851
     Copy CRC 043A6851
     Track not present in AccurateRip database
     Copy OK
Track  5
     Filename F:\Converted Flac\05 Little French Song.wav
     Peak level 98.1 %
     Extraction speed 1.9 X
     Track quality 100.0 %
     Test CRC 314DE72A
     Copy CRC 314DE72A
     Track not present in AccurateRip database
     Copy OK
Track  6
     Filename F:\Converted Flac\06 Dolce Francia.wav
     Peak level 97.8 %
     Extraction speed 2.0 X
     Track quality 100.0 %
     Test CRC DED04D3C
     Copy CRC DED04D3C
     Track not present in AccurateRip database
     Copy OK
Track  7
     Filename F:\Converted Flac\07 On Serait Seuls Au Monde.wav
     Peak level 97.8 %
     Extraction speed 1.2 X
     Track quality 99.9 %
     Test CRC 16DCEA28
     Copy CRC 16DCEA28
     Track not present in AccurateRip database
     Copy OK
Track  8
     Filename F:\Converted Flac\08 J'Arrive a Toi.wav
     Peak level 98.0 %
     Extraction speed 1.9 X
     Track quality 100.0 %
     Test CRC C057EACF
     Copy CRC C057EACF
     Track not present in AccurateRip database
     Copy OK
Track  9
     Filename F:\Converted Flac\09 Si La Photo Est Bonne.wav
     Peak level 100.0 %
     Extraction speed 1.9 X
     Track quality 100.0 %
     Test CRC AA5435B5
     Copy CRC AA5435B5
     Track not present in AccurateRip database
     Copy OK
Track 10
     Filename F:\Converted Flac\10 All the Best (feat. Marianne Faithfull).wav
     Peak level 97.8 %
     Extraction speed 1.9 X
     Track quality 100.0 %
     Test CRC EF542E06
     Copy CRC EF542E06
     Track not present in AccurateRip database
     Copy OK
Track 11
     Filename F:\Converted Flac\11 Tu Es Ma Came.wav
     Peak level 97.9 %
     Extraction speed 1.9 X
     Track quality 100.0 %
     Test CRC DDF09A7E
     Copy CRC DDF09A7E
     Track not present in AccurateRip database
     Copy OK
Track 12
     Filename F:\Converted Flac\12 Salut Marin.wav
     Peak level 97.9 %
     Extraction speed 2.0 X
     Track quality 100.0 %
     Test CRC D1343D01
     Copy CRC D1343D01
     Track not present in AccurateRip database
     Copy OK
Track 13
     Filename F:\Converted Flac\13 Darling.wav
     Peak level 98.8 %
     Extraction speed 1.9 X
     Track quality 100.0 %
     Test CRC 23ACEF42
     Copy CRC 23ACEF42
     Track not present in AccurateRip database
     Copy OK
Track 14
     Filename F:\Converted Flac\14 Raphaël.wav
     Peak level 97.9 %
     Extraction speed 1.1 X
     Track quality 99.9 %
     Test CRC 0A9F8422
     Copy CRC 0A9F8422
     Track not present in AccurateRip database
     Copy OK
Track 15
     Filename F:\Converted Flac\15 Chez Keith et Anita.wav
     Peak level 99.6 %
     Extraction speed 1.9 X
     Track quality 100.0 %
     Test CRC 271CD9B3
     Copy CRC 271CD9B3
     Track not present in AccurateRip database
     Copy OK
Track 16
     Filename F:\Converted Flac\16 Mon Raymond.wav
     Peak level 100.0 %
     Extraction speed 1.9 X
     Track quality 100.0 %
     Test CRC 6FB60A4D
     Copy CRC 6FB60A4D
     Track not present in AccurateRip database
     Copy OK
Track 17
     Filename F:\Converted Flac\17 Le Temps Perdu.wav
     Peak level 100.0 %
     Extraction speed 1.9 X
     Track quality 100.0 %
     Test CRC 2A11D93F
     Copy CRC 2A11D93F
     Track not present in AccurateRip database
     Copy OK
Track 18
     Filename F:\Converted Flac\18 Quelqu'un M'a Dit.wav
     Peak level 100.0 %
     Extraction speed 1.3 X
     Track quality 99.9 %
     Test CRC D2E70CE7
     Copy CRC D2E70CE7
     Track not present in AccurateRip database
     Copy OK
Track 19
     Filename F:\Converted Flac\19 La Dernière Minute.wav
     Peak level 98.4 %
     Extraction speed 1.6 X
     Track quality 100.0 %
     Test CRC 7478886B
     Copy CRC 7478886B
     Track not present in AccurateRip database
     Copy OK
None of the tracks are present in the AccurateRip database
No errors occurred
End of status report
==== Log checksum 60AF770431DBAD860C0689A9933E3DBC4375A77A744A9206061AF2807F4774FA ====
Код:
REM GENRE Chanson
REM DATE 2014
REM DISCID 150E5A13
REM COMMENT "ExactAudioCopy v1.0b3"
CATALOG 0602537998197
PERFORMER "Carla Bruni"
TITLE "A L'Olympia"
FILE "01 Deranger Les Pierres.wav" WAVE
  TRACK 01 AUDIO
    TITLE "Deranger Les Pierres"
    PERFORMER "Carla Bruni"
    ISRC T21mO1400001
    INDEX 01 00:00:00
    INDEX 02 03:56:64
FILE "02 L'Amoureuse.wav" WAVE
  TRACK 02 AUDIO
    TITLE "L'Amoureuse"
    PERFORMER "Carla Bruni"
    ISRC T21mO1400002
    INDEX 01 00:00:00
FILE "03 Le Plus Beau Du Quartier.wav" WAVE
  TRACK 03 AUDIO
    TITLE "Le Plus Beau Du Quartier"
    PERFORMER "Carla Bruni"
    ISRC T21mO1400003
    INDEX 01 00:00:00
FILE "04 Tout Le Monde.wav" WAVE
  TRACK 04 AUDIO
    TITLE "Tout Le Monde"
    PERFORMER "Carla Bruni"
    ISRC T21mO1400004
    INDEX 01 00:00:00
FILE "05 Little French Song.wav" WAVE
  TRACK 05 AUDIO
    TITLE "Little French Song"
    PERFORMER "Carla Bruni"
    ISRC T21mO1400005
    INDEX 01 00:00:00
FILE "06 Dolce Francia.wav" WAVE
  TRACK 06 AUDIO
    TITLE "Dolce Francia"
    PERFORMER "Carla Bruni"
    ISRC T21mO1400006
    INDEX 01 00:00:00
FILE "07 On Serait Seuls Au Monde.wav" WAVE
  TRACK 07 AUDIO
    TITLE "On Serait Seuls Au Monde"
    PERFORMER "Carla Bruni"
    ISRC T21mO1400007
    INDEX 01 00:00:00
FILE "08 J'Arrive a Toi.wav" WAVE
  TRACK 08 AUDIO
    TITLE "J'Arrive a Toi"
    PERFORMER "Carla Bruni"
    ISRC T21mO1400008
    INDEX 01 00:00:00
FILE "09 Si La Photo Est Bonne.wav" WAVE
  TRACK 09 AUDIO
    TITLE "Si La Photo Est Bonne"
    PERFORMER "Carla Bruni"
    ISRC T21mO1400009
    INDEX 01 00:00:00
FILE "10 All the Best (feat. Marianne Faithfull).wav" WAVE
  TRACK 10 AUDIO
    TITLE "All the Best (feat. Marianne Faithfull)"
    PERFORMER "Carla Bruni"
    ISRC T21mO1400010
    INDEX 01 00:00:00
FILE "11 Tu Es Ma Came.wav" WAVE
  TRACK 11 AUDIO
    TITLE "Tu Es Ma Came"
    PERFORMER "Carla Bruni"
    ISRC T21mO1400010
    INDEX 01 00:00:00
FILE "12 Salut Marin.wav" WAVE
  TRACK 12 AUDIO
    TITLE "Salut Marin"
    PERFORMER "Carla Bruni"
    ISRC T21mO1400012
    INDEX 01 00:00:00
FILE "13 Darling.wav" WAVE
  TRACK 13 AUDIO
    TITLE "Darling"
    PERFORMER "Carla Bruni"
    ISRC T21mO1400013
    INDEX 01 00:00:00
FILE "14 Raphael.wav" WAVE
  TRACK 14 AUDIO
    TITLE "Raphael"
    PERFORMER "Carla Bruni"
    ISRC T21mO1400014
    INDEX 01 00:00:00
FILE "15 Chez Keith et Anita.wav" WAVE
  TRACK 15 AUDIO
    TITLE "Chez Keith et Anita"
    PERFORMER "Carla Bruni"
    ISRC T21mO1400015
    INDEX 01 00:00:00
FILE "16 Mon Raymond.wav" WAVE
  TRACK 16 AUDIO
    TITLE "Mon Raymond"
    PERFORMER "Carla Bruni"
    ISRC T21mO1400016
    INDEX 01 00:00:00
FILE "17 Le Temps Perdu.wav" WAVE
  TRACK 17 AUDIO
    TITLE "Le Temps Perdu"
    PERFORMER "Carla Bruni"
    ISRC T21mO1400017
    INDEX 01 00:00:00
FILE "18 Quelqu'un M'a Dit.wav" WAVE
  TRACK 18 AUDIO
    TITLE "Quelqu'un M'a Dit"
    PERFORMER "Carla Bruni"
    ISRC T21mO1400018
    INDEX 01 00:00:00
FILE "19 La Derniere Minute.wav" WAVE
  TRACK 19 AUDIO
    TITLE "La Derniere Minute"
    PERFORMER "Carla Bruni"
    ISRC T21mO1400019
    INDEX 01 00:00:00
Правила, инструкции, FAQ!!!
Торрент  Добавлен [26 мар 2019, 21:02] Скачать торрент Магнет ссылка
Скачать торрент
[ Размер 15.1 КБ / Просмотров 8 ]

Статус
Проверен 
 
Размер  346.1 МБ
Приватный: Нет (DHT включён)
.torrent скачан  0
 


     Отправить личное сообщение
   
Страница 1 из 1
Показать сообщения за:  Поле сортировки  
Начать новую тему Ответить на тему


Сейчас этот форум просматривают: нет зарегистрированных пользователей и гости: 0


Вы не можете начинать темы
Вы не можете отвечать на сообщения
Вы не можете редактировать свои сообщения
Вы не можете удалять свои сообщения
Вы не можете добавлять вложения

Перейти:  
cron