Начать новую тему Ответить на тему
Статистика раздачи
Размер: 430.54 МБ | Добавлен: 26 мар 2019, 19:54 | Скачали: 0
Сидеров: 0  [0 байт/сек]    Личеров: 0  [0 байт/сек]
Пред. тема | След. тема 

Автор
Сообщение

СообщениеДобавлено: 26 мар 2019, 19:54 

Ответить с цитатой 

Century / And... Soul It Goes (Remastered)
Жанр: Pop-Rock
Страна-производитель диска: Portugal
Год издания диска: 1986 (Reissue 2001)
Издатель (лейбл): Vidisco
Номер по каталогу: 11.80.8017
Аудиокодек: FLAC (*.flac)
Тип рипа: image+.cue
Битрейт аудио: lossless
Продолжительность: 56:44
Источник (релизер): aylaayla
Наличие сканов в содержимом раздачи: да (600dpi)
По discogs: http://www.discogs.com/Century-And-Soul-It-Goes/release/1679880
Треклист:
01 - Lover Why (6:00)
02 - Pay As Your Hurt (5:43)
03 - Nigel Understands (6:15)
04 - (On A) Landslide (7:23)
05 - Jane (4:21)
06 - The Day The Water Dried (4:13)
07 - Gone With The Winner (4:27)
08 - Self Destruction (5:25)
09 - Fly Me To The Ground (5:46)
10 - Lover Why (Dance Remix) (6:43)
Код:
Exact Audio Copy V1.0 beta 1 from 15. November 2010
EAC extraction logfile from 10. August 2011, 18:51
Century / And... soul it goes (2001 Release)
Used drive  : SONY    DVD RW AD-7260S   Adapter: 2  ID: 0
Read mode               : Secure
Utilize accurate stream : Yes
Defeat audio cache      : Yes
Make use of C2 pointers : No
Read offset correction                      : 48
Overread into Lead-In and Lead-Out          : No
Fill up missing offset samples with silence : Yes
Delete leading and trailing silent blocks   : No
Null samples used in CRC calculations       : Yes
Used interface                              : Native Win32 interface for Win NT & 2000
Used output format : Internal WAV Routines
Sample format      : 44.100 Hz; 16 Bit; Stereo
TOC of the extracted CD
     Track |   Start  |  Length  | Start sector | End sector
    ---------------------------------------------------------
        1  |  0:00.00 |  6:04.01 |         0    |    27300
        2  |  6:04.01 |  5:46.70 |     27301    |    53320
        3  | 11:50.71 |  6:17.73 |     53321    |    81668
        4  | 18:08.69 |  7:25.65 |     81669    |   115108
        5  | 25:34.59 |  4:25.36 |    115109    |   135019
        6  | 30:00.20 |  4:15.09 |    135020    |   154153
        7  | 34:15.29 |  4:31.09 |    154154    |   174487
        8  | 38:46.38 |  5:28.44 |    174488    |   199131
        9  | 44:15.07 |  5:47.02 |    199132    |   225158
       10  | 50:02.09 |  6:42.52 |    225159    |   255360
Range status and errors
Selected range
     Filename S:\Century\1986 - And … Soul It Goes (2001 Release)\Century - And... Soul It Goes (2001 Release).wav
     Peak level 99.6 %
     Extraction speed 0.4 X
     Range quality 100.0 %
     Test CRC 5081DBE3
     Copy CRC 5081DBE3
     Copy OK
No errors occurred
AccurateRip summary
Track  1  accurately ripped (confidence 1)  [619AE677]
Track  2  not present in database
Track  3  not present in database
Track  4  not present in database
Track  5  not present in database
Track  6  not present in database
Track  7  not present in database
Track  8  not present in database
Track  9  not present in database
Track 10  not present in database
 1 track(s) accurately ripped
 9 track(s) not present in the AccurateRip database
Some tracks could not be verified as accurate
End of status report
Код:
REM GENRE Pop
REM DATE 1986
REM DISCID 770D4C0A
REM COMMENT "ExactAudioCopy v1.0b1"
PERFORMER "Century"
TITLE "And... soul it goes (2001 Release)"
FILE "Century - And... Soul It Goes (2001 Release).flac" WAVE
  TRACK 01 AUDIO
    TITLE "Lover why"
    PERFORMER "Century"
    INDEX 01 00:00:00
  TRACK 02 AUDIO
    TITLE "Pay as you hurt"
    PERFORMER "Century"
    INDEX 00 06:02:01
    INDEX 01 06:04:01
  TRACK 03 AUDIO
    TITLE "Nigel understand"
    PERFORMER "Century"
    INDEX 00 11:48:71
    INDEX 01 11:50:71
  TRACK 04 AUDIO
    TITLE "On a landslide"
    PERFORMER "Century"
    INDEX 00 18:06:69
    INDEX 01 18:08:69
  TRACK 05 AUDIO
    TITLE "Jane"
    PERFORMER "Century"
    INDEX 00 25:32:59
    INDEX 01 25:34:59
  TRACK 06 AUDIO
    TITLE "The day the water dried"
    PERFORMER "Century"
    INDEX 00 29:58:20
    INDEX 01 30:00:20
  TRACK 07 AUDIO
    TITLE "Gone with the winner"
    PERFORMER "Century"
    INDEX 00 34:13:29
    INDEX 01 34:15:29
  TRACK 08 AUDIO
    TITLE "Self destruction"
    PERFORMER "Century"
    INDEX 00 38:44:38
    INDEX 01 38:46:38
  TRACK 09 AUDIO
    TITLE "Fly me to the ground"
    PERFORMER "Century"
    INDEX 00 44:13:07
    INDEX 01 44:15:07
  TRACK 10 AUDIO
    TITLE "Lover why (dance remix)"
    PERFORMER "Century"
    INDEX 00 50:00:09
    INDEX 01 50:02:09
Правила, инструкции, FAQ!!!
Торрент  Добавлен [26 мар 2019, 19:54] Скачать торрент Магнет ссылка
Скачать торрент
[ Размер 18.14 КБ / Просмотров 6 ]

Статус
Проверен 
 
Размер  430.54 МБ
Приватный: Нет (DHT включён)
.torrent скачан  0
 


     Отправить личное сообщение
   
Страница 1 из 1
Показать сообщения за:  Поле сортировки  
Начать новую тему Ответить на тему


Сейчас этот форум просматривают: нет зарегистрированных пользователей и гости: 0


Вы не можете начинать темы
Вы не можете отвечать на сообщения
Вы не можете редактировать свои сообщения
Вы не можете удалять свои сообщения
Вы не можете добавлять вложения

Перейти:  
cron