Начать новую тему Ответить на тему
Статистика раздачи
Размер: 234.1 МБ | Добавлен: 26 мар 2019, 19:29 | Скачали: 0
Сидеров: 0  [0 байт/сек]    Личеров: 0  [0 байт/сек]
Пред. тема | След. тема 

Автор
Сообщение

СообщениеДобавлено: 26 мар 2019, 19:29 

Ответить с цитатой 

Causes - Under The Bridges That You Built For Me
Жанр: Pop-Rock
Носитель: CD
Страна-производитель диска (релиза): Нидерланды / Netherlands
Год издания: 2016
Издатель (лейбл): [PIAS]
Номер по каталогу: PIASNL0238CD
Аудиокодек: FLAC (*.flac)
Тип рипа: image+.cue
Битрейт аудио: lossless
Продолжительность: 00:38:25
Источник (релизер): usenet
Наличие сканов в содержимом раздачи: да
Треклист:
01. To The River [3:17]
02. The Storm [3:52]
03. Teach Me How To Dance With You [3:32]
04. Sparrows [3:35]
05. Walk On Water [3:34]
06. This Sinking Ship [3:34]
07. Lights Beside You [3:27]
08. All For Us [3:34]
09. Back To Life [3:11]
10. A Million Times [3:38]
11. Close To Me [3:10]

Код:
Exact Audio Copy V1.1 from 23. June 2015
EAC extraction logfile from 5. February 2016, 16:41
Causes / Under Bridges That You Built For Me
Used drive  : HL-DT-STDVDRAM GH24NSD1   Adapter: 0  ID: 0
Read mode               : Secure
Utilize accurate stream : Yes
Defeat audio cache      : Yes
Make use of C2 pointers : No
Read offset correction                      : 6
Overread into Lead-In and Lead-Out          : No
Fill up missing offset samples with silence : Yes
Delete leading and trailing silent blocks   : No
Null samples used in CRC calculations       : Yes
Used interface                              : Installed external ASPI interface
Used output format : Internal WAV Routines
Sample format      : 44.100 Hz; 16 Bit; Stereo
TOC of the extracted CD
     Track |   Start  |  Length  | Start sector | End sector
    ---------------------------------------------------------
        1  |  0:00.00 |  3:17.23 |         0    |    14797
        2  |  3:17.23 |  3:52.27 |     14798    |    32224
        3  |  7:09.50 |  3:32.17 |     32225    |    48141
        4  | 10:41.67 |  3:35.34 |     48142    |    64300
        5  | 14:17.26 |  3:33.48 |     64301    |    80323
        6  | 17:50.74 |  3:34.01 |     80324    |    96374
        7  | 21:25.00 |  3:27.22 |     96375    |   111921
        8  | 24:52.22 |  3:34.21 |    111922    |   127992
        9  | 28:26.43 |  3:11.14 |    127993    |   142331
       10  | 31:37.57 |  3:38.10 |    142332    |   158691
       11  | 35:15.67 |  3:09.58 |    158692    |   172924
Range status and errors
Selected range
     Filename E:\SPOT NIEUW\Causes - Under Bridges That You Built (EAC)\Causes - Under Bridges That You Built For Me.wav
     Peak level 100.0 %
     Extraction speed 6.6 X
     Range quality 100.0 %
     Test CRC F4336F30
     Copy CRC F4336F30
     Copy OK
No errors occurred
AccurateRip summary
Track  1  not present in database
Track  2  not present in database
Track  3  not present in database
Track  4  not present in database
Track  5  not present in database
Track  6  not present in database
Track  7  not present in database
Track  8  not present in database
Track  9  not present in database
Track 10  not present in database
Track 11  not present in database
None of the tracks are present in the AccurateRip database
End of status report
Код:
REM GENRE Pop
REM DATE 2016
REM DISCID A409010B
REM COMMENT "ExactAudioCopy v1.1"
PERFORMER "Causes"
TITLE "Under Bridges That You Built For Me"
FILE "Causes - Under Bridges That You Built For Me.flac" WAVE
  TRACK 01 AUDIO
    TITLE "To The River"
    PERFORMER "Causes"
    INDEX 01 00:00:00
  TRACK 02 AUDIO
    TITLE "The Storm"
    PERFORMER "Causes"
    INDEX 01 03:17:23
  TRACK 03 AUDIO
    TITLE "Teach Me How To Dance With You"
    PERFORMER "Causes"
    INDEX 01 07:09:50
  TRACK 04 AUDIO
    TITLE "Sparrows"
    PERFORMER "Causes"
    INDEX 01 10:41:67
  TRACK 05 AUDIO
    TITLE "Walk On Water"
    PERFORMER "Causes"
    INDEX 01 14:17:26
  TRACK 06 AUDIO
    TITLE "This Sinking Ship"
    PERFORMER "Causes"
    INDEX 01 17:50:74
  TRACK 07 AUDIO
    TITLE "Lights Beside You"
    PERFORMER "Causes"
    INDEX 00 21:23:70
    INDEX 01 21:25:00
  TRACK 08 AUDIO
    TITLE "All For Us"
    PERFORMER "Causes"
    INDEX 01 24:52:22
  TRACK 09 AUDIO
    TITLE "Back To Life"
    PERFORMER "Causes"
    INDEX 01 28:26:43
  TRACK 10 AUDIO
    TITLE "A Million Times"
    PERFORMER "Causes"
    INDEX 00 31:36:02
    INDEX 01 31:37:57
  TRACK 11 AUDIO
    TITLE "Close To Me"
    PERFORMER "Causes"
    INDEX 01 35:15:67
Код:
-----------------------
DON'T MODIFY THIS FILE
-----------------------
PERFORMER: auCDtect Task Manager, ver. 1.6.0 RC1 build 1.6.0.1
Copyright (c) 2008-2010 y-soft. All rights reserved
[url=http://y-soft.org]http://y-soft.org[/url]
ANALYZER: auCDtect: CD records authenticity detector, version 0.8.2
Copyright (c) 2004 Oleg Berngardt. All rights reserved.
Copyright (c) 2004 Alexander Djourik. All rights reserved.
FILE: Causes - Under Bridges That You Built For Me.flac
  Size: 243773046 Hash: 4875836F2168904C5EB21317779942A1 Accuracy: -m0
  Conclusion: CDDA 100%
  Signature: DC2B97E91FCEAF9CD34219B8EBF376580E598D5E

Causes is a Dutch pop-rock band from Utrecht, The Netherlands.
Rupert Blackman: vocals, guitar
Jan Schröder: guitar
Robert Pronk: bass
Simon Böing-Messing: drums
Официальный сайт / Official site
Causes are Rupert Blackman, Jan Schröder, Simon Boeing-Messing, Robert Pronk. Album produced, engineered and mixed by Ian Grimble. Recorded at 2kHz studios in London, UK and Wisseloord Studios in Hilversum, The Netherlands.
Additional engineering by Rupert Blackman & Jan Schröder. Mastered by Christian Wright at Abbey Road Studios, London.
All songs written by Rupert Blackman & Jan Schröder except "A Million Times" written by Robert Pronk, Rupert Blackman and Jan Schröder and "Sparrows" written by Robert Pronk, Chris Garr, Rupert Blackman & Jan Schröder. Rupert Blackman & Jan Schröder published by Universal Music.
Robert Pronk published by Sony/ATV Music Publishing. Simon Boeing-Messing (Copyright Control). Chris Garr (Copyright Control). Cover sleeve artist Karis Upton. Cover sleeve design Steve Stacey. Photography by Andrew Whitton.
Правила, инструкции, FAQ!!!
Торрент  Добавлен [26 мар 2019, 19:29] Скачать торрент Магнет ссылка
Скачать торрент
[ Размер 19.42 КБ / Просмотров 0 ]

Статус
Проверен 
 
Размер  234.1 МБ
Приватный: Нет (DHT включён)
.torrent скачан  0
 


     Отправить личное сообщение
   
Страница 1 из 1
Показать сообщения за:  Поле сортировки  
Начать новую тему Ответить на тему


Сейчас этот форум просматривают: нет зарегистрированных пользователей и гости: 0


Вы не можете начинать темы
Вы не можете отвечать на сообщения
Вы не можете редактировать свои сообщения
Вы не можете удалять свои сообщения
Вы не можете добавлять вложения

Перейти:  
cron