Начать новую тему Ответить на тему
Статистика раздачи
Размер: 580.22 МБ | Добавлен: 26 мар 2019, 19:25 | Скачали: 0
Сидеров: 0  [0 байт/сек]    Личеров: 0  [0 байт/сек]
Пред. тема | След. тема 

Автор
Сообщение

СообщениеДобавлено: 26 мар 2019, 19:25 

Ответить с цитатой 

Cäthe / 2 Albums
Жанр: Pop-rock
Страна-производитель диска: Germany
Год издания: 2011-2013
Издатель (лейбл): Deag Music (Sony Music)
Страна: Germany
Аудиокодек: FLAC (*.flac)
Тип рипа: tracks+.cue
Битрейт аудио: lossless
Источник (релизер): мой рип
Наличие сканов в содержимом раздачи: нет
Треклист:
Cäthe - "Verschollenes Tier" (2013)
Tracks: 14
Total time: 46:13
Year: 2013
Disc-ID: rock / c90adb0e
1. Hoch oben nah dem Sturm 3:52
2. Geister 3:31
3. TabulaRasa 3:29
4. Gelbe Kartons 3:50
5. Kleingeld 1:51
6. Alien 3:33
7. Funken 3:11
8. Verschollenes Tier 3:09
9. Die Leute 3:16
10. Tu was du willst aber tu es langsam 3:06
11. Einer ist immer der Arsch 1:58
12. Auf die Dächer 3:59
13. Waffen niederlegen 3:33
14. Mein Herz mit dir bin ich frei 3:55
Код:
Exact Audio Copy V1.0 beta 3 from 29. August 2011
EAC extraction logfile from 23. September 2013, 19:03
Caethe / Verschollenes Tier
Used drive  : PIONEER BD-RW   BDR-TD04   Adapter: 0  ID: 1
Read mode               : Secure
Utilize accurate stream : Yes
Defeat audio cache      : Yes
Make use of C2 pointers : No
Read offset correction                      : 667
Overread into Lead-In and Lead-Out          : No
Fill up missing offset samples with silence : Yes
Delete leading and trailing silent blocks   : No
Null samples used in CRC calculations       : Yes
Used interface                              : Native Win32 interface for Win NT & 2000
Gap handling                                : Appended to previous track
Used output format              : User Defined Encoder
Selected bitrate                : 1024 kBit/s
Quality                         : High
Add ID3 tag                     : No
Command line compressor         : C:\Program Files (x86)\Exact Audio Copy\Flac\flac.exe
Additional command line options : -V -8 -T "Genre=%genre%" -T "Artist=%artist%" -T "Title=%title%" -T "Album=%albumtitle%" -T "Date=%year%" -T "Tracknumber=%tracknr%" -T "Comment=%comment%" %source%
TOC of the extracted CD
     Track |   Start  |  Length  | Start sector | End sector
    ---------------------------------------------------------
        1  |  0:00.00 |  3:52.44 |         0    |    17443
        2  |  3:52.44 |  3:31.72 |     17444    |    33340
        3  |  7:24.41 |  3:29.23 |     33341    |    49038
        4  | 10:53.64 |  3:50.30 |     49039    |    66318
        5  | 14:44.19 |  1:51.16 |     66319    |    74659
        6  | 16:35.35 |  3:33.37 |     74660    |    90671
        7  | 20:08.72 |  3:11.38 |     90672    |   105034
        8  | 23:20.35 |  3:09.34 |    105035    |   119243
        9  | 26:29.69 |  3:16.28 |    119244    |   133971
       10  | 29:46.22 |  3:06.45 |    133972    |   147966
       11  | 32:52.67 |  1:58.37 |    147967    |   156853
       12  | 34:51.29 |  3:59.41 |    156854    |   174819
       13  | 38:50.70 |  3:33.17 |    174820    |   190811
       14  | 42:24.12 |  3:55.48 |    190812    |   208484
Track  1
     Filename C:\H\Caethe flac\01 Hoch oben nah dem Sturm.wav
     Pre-gap length  0:00:02.00
     Peak level 99.4 %
     Extraction speed 2.9 X
     Track quality 100.0 %
     Test CRC 2DC05A2B
     Copy CRC 2DC05A2B
     Accurately ripped (confidence 4)  [16AB2F2E]  (AR v2)
     Copy OK
Track  2
     Filename C:\H\Caethe flac\02 Geister.wav
     Peak level 99.4 %
     Extraction speed 3.2 X
     Track quality 100.0 %
     Test CRC D56145C9
     Copy CRC D56145C9
     Accurately ripped (confidence 4)  [C62C510E]  (AR v2)
     Copy OK
Track  3
     Filename C:\H\Caethe flac\03 TabulaRasa.wav
     Peak level 99.4 %
     Extraction speed 3.4 X
     Track quality 100.0 %
     Test CRC 22DF4F2F
     Copy CRC 22DF4F2F
     Accurately ripped (confidence 4)  [CDD811C2]  (AR v2)
     Copy OK
Track  4
     Filename C:\H\Caethe flac\04 Gelbe Kartons.wav
     Peak level 99.4 %
     Extraction speed 3.2 X
     Track quality 99.9 %
     Test CRC 67DF139C
     Copy CRC 67DF139C
     Accurately ripped (confidence 4)  [69A28299]  (AR v2)
     Copy OK
Track  5
     Filename C:\H\Caethe flac\05 Kleingeld.wav
     Peak level 99.5 %
     Extraction speed 2.6 X
     Track quality 99.9 %
     Test CRC C0338DEA
     Copy CRC C0338DEA
     Accurately ripped (confidence 4)  [A78AC3CF]  (AR v2)
     Copy OK
Track  6
     Filename C:\H\Caethe flac\06 Alien.wav
     Peak level 99.4 %
     Extraction speed 3.9 X
     Track quality 100.0 %
     Test CRC 4CEF8571
     Copy CRC 4CEF8571
     Accurately ripped (confidence 4)  [9EBCF63B]  (AR v2)
     Copy OK
Track  7
     Filename C:\H\Caethe flac\07 Funken.wav
     Peak level 99.4 %
     Extraction speed 4.0 X
     Track quality 100.0 %
     Test CRC 510B9066
     Copy CRC 510B9066
     Accurately ripped (confidence 4)  [B8CDB0BB]  (AR v2)
     Copy OK
Track  8
     Filename C:\H\Caethe flac\08 Verschollenes Tier.wav
     Peak level 99.4 %
     Extraction speed 4.2 X
     Track quality 100.0 %
     Test CRC 7545C87B
     Copy CRC 7545C87B
     Accurately ripped (confidence 4)  [C71A42D8]  (AR v2)
     Copy OK
Track  9
     Filename C:\H\Caethe flac\09 Die Leute.wav
     Peak level 99.4 %
     Extraction speed 4.3 X
     Track quality 100.0 %
     Test CRC 73D33815
     Copy CRC 73D33815
     Accurately ripped (confidence 4)  [57573BB7]  (AR v2)
     Copy OK
Track 10
     Filename C:\H\Caethe flac\10 Tu was du willst aber tu es langsam.wav
     Peak level 99.8 %
     Extraction speed 4.4 X
     Track quality 100.0 %
     Test CRC FE810D28
     Copy CRC FE810D28
     Accurately ripped (confidence 4)  [40D3E253]  (AR v2)
     Copy OK
Track 11
     Filename C:\H\Caethe flac\11 Einer ist immer der Arsch.wav
     Peak level 72.4 %
     Extraction speed 3.3 X
     Track quality 99.9 %
     Test CRC 10920E50
     Copy CRC 10920E50
     Accurately ripped (confidence 4)  [0C784857]  (AR v2)
     Copy OK
Track 12
     Filename C:\H\Caethe flac\12 Auf die Daecher.wav
     Peak level 99.4 %
     Extraction speed 4.8 X
     Track quality 100.0 %
     Test CRC 3BD6D887
     Copy CRC 3BD6D887
     Accurately ripped (confidence 4)  [47863051]  (AR v2)
     Copy OK
Track 13
     Filename C:\H\Caethe flac\13 Waffen niederlegen.wav
     Peak level 99.6 %
     Extraction speed 4.9 X
     Track quality 100.0 %
     Test CRC 1E8D1AE3
     Copy CRC 1E8D1AE3
     Accurately ripped (confidence 4)  [CDFE5A85]  (AR v2)
     Copy OK
Track 14
     Filename C:\H\Caethe flac\14 Mein Herz mit dir bin ich frei.wav
     Peak level 99.4 %
     Extraction speed 5.1 X
     Track quality 100.0 %
     Test CRC DBA0EA7D
     Copy CRC DBA0EA7D
     Accurately ripped (confidence 4)  [7E3BD1CA]  (AR v2)
     Copy OK
All tracks accurately ripped
No errors occurred
End of status report
==== Log checksum 7A837692BAB23F5DBE2D7F4414974F74D3BB727B6311362413A59D63E589620A ====
Код:
REM GENRE Pop-rock
REM DATE 2013
REM DISCID C90ADB0E
REM COMMENT "ExactAudioCopy v1.0b3"
PERFORMER "Caethe"
TITLE "Verschollenes Tier"
FILE "01 Hoch oben nah dem Sturm.wav" WAVE
  TRACK 01 AUDIO
    TITLE "Hoch oben nah dem Sturm"
    PERFORMER "Caethe"
    ISRC DEDN51200153
    INDEX 01 00:00:00
FILE "02 Geister.wav" WAVE
  TRACK 02 AUDIO
    TITLE "Geister"
    PERFORMER "Caethe"
    ISRC DEDN51200154
    INDEX 01 00:00:00
FILE "03 TabulaRasa.wav" WAVE
  TRACK 03 AUDIO
    TITLE "TabulaRasa"
    PERFORMER "Caethe"
    ISRC DEDN51200155
    INDEX 01 00:00:00
FILE "04 Gelbe Kartons.wav" WAVE
  TRACK 04 AUDIO
    TITLE "Gelbe Kartons"
    PERFORMER "Caethe"
    ISRC DEDN51200156
    INDEX 01 00:00:00
FILE "05 Kleingeld.wav" WAVE
  TRACK 05 AUDIO
    TITLE "Kleingeld"
    PERFORMER "Caethe"
    ISRC DEDN51200157
    INDEX 01 00:00:00
FILE "06 Alien.wav" WAVE
  TRACK 06 AUDIO
    TITLE "Alien"
    PERFORMER "Caethe"
    ISRC DEDN51200158
    INDEX 01 00:00:00
FILE "07 Funken.wav" WAVE
  TRACK 07 AUDIO
    TITLE "Funken"
    PERFORMER "Caethe"
    ISRC DEDN51200159
    INDEX 01 00:00:00
FILE "08 Verschollenes Tier.wav" WAVE
  TRACK 08 AUDIO
    TITLE "Verschollenes Tier"
    PERFORMER "Caethe"
    ISRC DEDN51200160
    INDEX 01 00:00:00
FILE "09 Die Leute.wav" WAVE
  TRACK 09 AUDIO
    TITLE "Die Leute"
    PERFORMER "Caethe"
    ISRC DEDN51200161
    INDEX 01 00:00:00
FILE "10 Tu was du willst aber tu es langsam.wav" WAVE
  TRACK 10 AUDIO
    TITLE "Tu was du willst aber tu es langsam"
    PERFORMER "Caethe"
    ISRC DEDN51200162
    INDEX 01 00:00:00
FILE "11 Einer ist immer der Arsch.wav" WAVE
  TRACK 11 AUDIO
    TITLE "Einer ist immer der Arsch"
    PERFORMER "Caethe"
    ISRC DEDN51200163
    INDEX 01 00:00:00
FILE "12 Auf die Daecher.wav" WAVE
  TRACK 12 AUDIO
    TITLE "Auf die Daecher"
    PERFORMER "Caethe"
    ISRC DEDN51200164
    INDEX 01 00:00:00
FILE "13 Waffen niederlegen.wav" WAVE
  TRACK 13 AUDIO
    TITLE "Waffen niederlegen"
    PERFORMER "Caethe"
    ISRC DEDN51200165
    INDEX 01 00:00:00
FILE "14 Mein Herz mit dir bin ich frei.wav" WAVE
  TRACK 14 AUDIO
    TITLE "Mein Herz mit dir bin ich frei"
    PERFORMER "Caethe"
    ISRC DEDN51200166
    INDEX 01 00:00:00
Код:
[CUETools log; Date: 23.09.2013 19:04:26; Version: 2.1.5]
[CTDB TOCID: tg7iSKgcxGgEVvz.5KVOxT4VK8I-] found.
Track | CTDB Status
  1   | (4/4) Accurately ripped
  2   | (4/4) Accurately ripped
  3   | (4/4) Accurately ripped
  4   | (4/4) Accurately ripped
  5   | (4/4) Accurately ripped
  6   | (4/4) Accurately ripped
  7   | (4/4) Accurately ripped
  8   | (4/4) Accurately ripped
  9   | (4/4) Accurately ripped
 10   | (4/4) Accurately ripped
 11   | (4/4) Accurately ripped
 12   | (4/4) Accurately ripped
 13   | (4/4) Accurately ripped
 14   | (4/4) Accurately ripped
[AccurateRip ID: 0017ef98-00fcfc7f-c90adb0e] found.
Track   [  CRC   |   V2   ] Status
 01     [7a1825da|16ab2f2e] (0+4/4) Accurately ripped
 02     [a77ef525|c62c510e] (0+4/4) Accurately ripped
 03     [043875ad|cdd811c2] (0+4/4) Accurately ripped
 04     [00aa8038|69a28299] (0+4/4) Accurately ripped
 05     [01c0fca2|a78ac3cf] (0+4/4) Accurately ripped
 06     [bdcaa620|9ebcf63b] (0+4/4) Accurately ripped
 07     [9f3914c6|b8cdb0bb] (0+4/4) Accurately ripped
 08     [de6918b9|c71a42d8] (0+4/4) Accurately ripped
 09     [13bcdd41|57573bb7] (0+4/4) Accurately ripped
 10     [6bffae63|40d3e253] (0+4/4) Accurately ripped
 11     [59d91449|0c784857] (0+4/4) Accurately ripped
 12     [51c921f1|47863051] (0+4/4) Accurately ripped
 13     [e84bb611|cdfe5a85] (0+4/4) Accurately ripped
 14     [1c20b5e3|7e3bd1ca] (0+4/4) Accurately ripped
Track Peak [ CRC32  ] [W/O NULL] [  LOG   ]
 --   99,8 [D75C5353] [7B06D268]
 01   99,4 [2DC05A2B] [57B75B63]   CRC32
 02   99,4 [D56145C9] [501B7EFE]   CRC32
 03   99,4 [22DF4F2F] [181BB0E3]   CRC32
 04   99,4 [67DF139C] [6962FF81]   CRC32
 05   99,5 [C0338DEA] [C742AD3A]   CRC32
 06   99,4 [4CEF8571] [83289782]   CRC32
 07   99,4 [510B9066] [E6190AD6]   CRC32
 08   99,4 [7545C87B] [6A9FCE61]   CRC32
 09   99,4 [73D33815] [3CC8D986]   CRC32
 10   99,8 [FE810D28] [B7C3C0F1]   CRC32
 11   72,4 [10920E50] [C56F14DE]   CRC32
 12   99,4 [3BD6D887] [60AD750B]   CRC32
 13   99,6 [1E8D1AE3] [8FD89355]   CRC32
 14   99,4 [DBA0EA7D] [10C53B3A]   CRC32
#777Треклист:
Cäthe - "Ich muss gar nichts" (2011)
Tracks: 12
Total time: 50:43
Year: 2011
Disc-ID: misc / 900be80c
1. Unter meiner Haut 3:31
2. Senorita 3:33
3. Kaugummi 3:43
4. Wahre Liebe 3:51
5. Ding 4:26
6. Ewige Braut 3:28
7. Tiger Lilly 4:14
8. Leicht schwer zu sein 2:44
9. Spirituell 3:47
10. Bleib hier 2:55
11. Nimm mich mit 3:52
12. Ich muss gar nichts 3:02
13. Alkohol Baby (Hidden Track) 4:33
Код:
Exact Audio Copy V1.0 beta 3 from 29. August 2011
EAC extraction logfile from 13. September 2013, 21:23
Caethe / Ich muss gar nichts
Used drive  : PLEXTOR CD-R   PX-W4012A   Adapter: 2  ID: 0
Read mode               : Secure
Utilize accurate stream : Yes
Defeat audio cache      : Yes
Make use of C2 pointers : No
Read offset correction                      : 98
Overread into Lead-In and Lead-Out          : No
Fill up missing offset samples with silence : Yes
Delete leading and trailing silent blocks   : No
Null samples used in CRC calculations       : Yes
Used interface                              : Native Win32 interface for Win NT & 2000
Gap handling                                : Appended to previous track
Used output format              : User Defined Encoder
Selected bitrate                : 1024 kBit/s
Quality                         : High
Add ID3 tag                     : No
Command line compressor         : C:\Program Files (x86)\Exact Audio Copy\Flac\flac.exe
Additional command line options : -V -8 -T "Genre=%genre%" -T "Artist=%artist%" -T "Title=%title%" -T "Album=%albumtitle%" -T "Date=%year%" -T "Tracknumber=%tracknr%" -T "Comment=%comment%" %source%
TOC of the extracted CD
     Track |   Start  |  Length  | Start sector | End sector
    ---------------------------------------------------------
        1  |  0:00.00 |  3:31.25 |         0    |    15849
        2  |  3:31.25 |  3:33.68 |     15850    |    31892
        3  |  7:05.18 |  3:43.55 |     31893    |    48672
        4  | 10:48.73 |  3:51.57 |     48673    |    66054
        5  | 14:40.55 |  4:26.26 |     66055    |    86030
        6  | 19:07.06 |  3:28.67 |     86031    |   101697
        7  | 22:35.73 |  4:14.06 |    101698    |   120753
        8  | 26:50.04 |  2:44.34 |    120754    |   133087
        9  | 29:34.38 |  3:47.31 |    133088    |   150143
       10  | 33:21.69 |  2:55.12 |    150144    |   163280
       11  | 36:17.06 |  3:52.54 |    163281    |   180734
       12  | 40:09.60 | 10:38.15 |    180735    |   228599
Track  1
     Filename C:\H\Caethe flac\01 Unter meiner Haut.wav
     Pre-gap length  0:00:02.00
     Peak level 95.4 %
     Extraction speed 8.4 X
     Track quality 100.0 %
     Test CRC 402B84DD
     Copy CRC 402B84DD
     Accurately ripped (confidence 13)  [C7107F61]  (AR v2)
     Copy OK
Track  2
     Filename C:\H\Caethe flac\02 Senorita.wav
     Peak level 95.4 %
     Extraction speed 9.2 X
     Track quality 100.0 %
     Test CRC 68DF6C8E
     Copy CRC 68DF6C8E
     Accurately ripped (confidence 13)  [0CDEC3CB]  (AR v2)
     Copy OK
Track  3
     Filename C:\H\Caethe flac\03 Kaugummi.wav
     Peak level 96.6 %
     Extraction speed 8.6 X
     Track quality 99.9 %
     Test CRC 7C60C05E
     Copy CRC 7C60C05E
     Accurately ripped (confidence 13)  [43372E53]  (AR v2)
     Copy OK
Track  4
     Filename C:\H\Caethe flac\04 Wahre Liebe.wav
     Peak level 95.4 %
     Extraction speed 9.3 X
     Track quality 99.9 %
     Test CRC 6436B4FE
     Copy CRC 6436B4FE
     Accurately ripped (confidence 13)  [950686AF]  (AR v2)
     Copy OK
Track  5
     Filename C:\H\Caethe flac\05 Ding.wav
     Peak level 88.3 %
     Extraction speed 11.4 X
     Track quality 100.0 %
     Test CRC E5928B8A
     Copy CRC E5928B8A
     Accurately ripped (confidence 13)  [B5D795FA]  (AR v2)
     Copy OK
Track  6
     Filename C:\H\Caethe flac\06 Ewige Braut.wav
     Peak level 95.4 %
     Extraction speed 12.0 X
     Track quality 100.0 %
     Test CRC 59839D18
     Copy CRC 59839D18
     Accurately ripped (confidence 13)  [51243CEC]  (AR v2)
     Copy OK
Track  7
     Filename C:\H\Caethe flac\07 Tiger Lilly.wav
     Peak level 96.7 %
     Extraction speed 12.7 X
     Track quality 100.0 %
     Test CRC 7D8B7BE3
     Copy CRC 7D8B7BE3
     Accurately ripped (confidence 13)  [5A0E80CC]  (AR v2)
     Copy OK
Track  8
     Filename C:\H\Caethe flac\08 Leicht schwer zu sein.wav
     Pre-gap length  0:01:09.06
     Peak level 96.6 %
     Extraction speed 12.7 X
     Track quality 100.0 %
     Test CRC 8AFDD91E
     Copy CRC 8AFDD91E
     Accurately ripped (confidence 13)  [F86ED0A5]  (AR v2)
     Copy OK
Track  9
     Filename C:\H\Caethe flac\09 Spirituell.wav
     Peak level 96.6 %
     Extraction speed 11.3 X
     Track quality 99.9 %
     Test CRC 7B5AD2B0
     Copy CRC 7B5AD2B0
     Accurately ripped (confidence 13)  [C4318F20]  (AR v2)
     Copy OK
Track 10
     Filename C:\H\Caethe flac\10 Bleib hier.wav
     Peak level 89.4 %
     Extraction speed 13.7 X
     Track quality 100.0 %
     Test CRC 7CAA9875
     Copy CRC 7CAA9875
     Accurately ripped (confidence 13)  [9FC19890]  (AR v2)
     Copy OK
Track 11
     Filename C:\H\Caethe flac\11 Nimm mich mit.wav
     Peak level 95.4 %
     Extraction speed 12.0 X
     Track quality 99.9 %
     Test CRC 43D7F860
     Copy CRC 43D7F860
     Accurately ripped (confidence 13)  [9C3F9590]  (AR v2)
     Copy OK
Track 12
     Filename C:\H\Caethe flac\12 Ich muss gar nichts.wav
     Peak level 96.6 %
     Extraction speed 15.9 X
     Track quality 100.0 %
     Test CRC 63B16F34
     Copy CRC 63B16F34
     Accurately ripped (confidence 13)  [0FE123C0]  (AR v2)
     Copy OK
All tracks accurately ripped
No errors occurred
End of status report
==== Log checksum DCD011CE4C1C5D858B9945112104652F6128BEA270AAD02C20D22F9627505DD8 ====
Код:
REM GENRE Pop-rock
REM DATE 2011
REM DISCID 900BE80C
REM COMMENT "ExactAudioCopy v1.0b3"
PERFORMER "Caethe"
TITLE "Ich muss gar nichts"
FILE "01 Unter meiner Haut.wav" WAVE
  TRACK 01 AUDIO
    TITLE "Unter meiner Haut"
    PERFORMER "Caethe"
    ISRC DEDN51000641
    FLAGS DCP
    INDEX 01 00:00:00
FILE "02 Senorita.wav" WAVE
  TRACK 02 AUDIO
    TITLE "Senorita"
    PERFORMER "Caethe"
    ISRC DEDN51000640
    FLAGS DCP
    INDEX 01 00:00:00
FILE "03 Kaugummi.wav" WAVE
  TRACK 03 AUDIO
    TITLE "Kaugummi"
    PERFORMER "Caethe"
    ISRC DEDN51000642
    FLAGS DCP
    INDEX 01 00:00:00
FILE "04 Wahre Liebe.wav" WAVE
  TRACK 04 AUDIO
    TITLE "Wahre Liebe"
    PERFORMER "Caethe"
    ISRC DEDN51000636
    FLAGS DCP
    INDEX 01 00:00:00
FILE "05 Ding.wav" WAVE
  TRACK 05 AUDIO
    TITLE "Ding"
    PERFORMER "Caethe"
    ISRC DEDN51000637
    FLAGS DCP
    INDEX 01 00:00:00
FILE "06 Ewige Braut.wav" WAVE
  TRACK 06 AUDIO
    TITLE "Ewige Braut"
    PERFORMER "Caethe"
    ISRC DEDN51000643
    FLAGS DCP
    INDEX 01 00:00:00
FILE "07 Tiger Lilly.wav" WAVE
  TRACK 07 AUDIO
    TITLE "Tiger Lilly"
    PERFORMER "Caethe"
    ISRC DEDN51000644
    FLAGS DCP
    INDEX 01 00:00:00
  TRACK 08 AUDIO
    TITLE "Leicht schwer zu sein"
    PERFORMER "Caethe"
    ISRC DEDN51000645
    FLAGS DCP
    INDEX 00 03:05:00
FILE "08 Leicht schwer zu sein.wav" WAVE
    INDEX 01 00:00:00
FILE "09 Spirituell.wav" WAVE
  TRACK 09 AUDIO
    TITLE "Spirituell"
    PERFORMER "Caethe"
    ISRC DEDN51000646
    FLAGS DCP
    INDEX 01 00:00:00
FILE "10 Bleib hier.wav" WAVE
  TRACK 10 AUDIO
    TITLE "Bleib hier"
    PERFORMER "Caethe"
    ISRC DEDN51000647
    FLAGS DCP
    INDEX 01 00:00:00
FILE "11 Nimm mich mit.wav" WAVE
  TRACK 11 AUDIO
    TITLE "Nimm mich mit"
    PERFORMER "Caethe"
    ISRC DEDN51000648
    FLAGS DCP
    INDEX 01 00:00:00
FILE "12 Ich muss gar nichts.wav" WAVE
  TRACK 12 AUDIO
    TITLE "Ich muss gar nichts"
    PERFORMER "Caethe"
    ISRC DEDN51000649
    FLAGS DCP
    INDEX 01 00:00:00
Код:
[CUETools log; Date: 14.09.2013 11:32:46; Version: 2.1.5]
[CTDB TOCID: 7LfwZJBbI3nhZ.gojc0gb9BKSis-] found.
Track | CTDB Status
  1   | (15/15) Accurately ripped
  2   | (15/15) Accurately ripped
  3   | (15/15) Accurately ripped
  4   | (15/15) Accurately ripped
  5   | (15/15) Accurately ripped
  6   | (15/15) Accurately ripped
  7   | (15/15) Accurately ripped
  8   | (15/15) Accurately ripped
  9   | (15/15) Accurately ripped
 10   | (15/15) Accurately ripped
 11   | (15/15) Accurately ripped
 12   | (15/15) Accurately ripped
[AccurateRip ID: 00143ed2-00be775a-900be80c] found.
Track   [  CRC   |   V2   ] Status
 01     [4a195d04|c7107f61] (08+13/21) Accurately ripped
 02     [51d5c0b7|0cdec3cb] (08+13/21) Accurately ripped
 03     [c9721bc6|43372e53] (08+13/21) Accurately ripped
 04     [af6aba00|950686af] (08+13/21) Accurately ripped
 05     [fdbad452|b5d795fa] (08+13/21) Accurately ripped
 06     [9851ebf3|51243cec] (08+13/21) Accurately ripped
 07     [4017125b|5a0e80cc] (08+13/21) Accurately ripped
 08     [581647d4|f86ed0a5] (08+13/21) Accurately ripped
 09     [4052bab4|c4318f20] (08+13/21) Accurately ripped
 10     [d79fa895|9fc19890] (08+13/21) Accurately ripped
 11     [141c127c|9c3f9590] (08+13/21) Accurately ripped
 12     [e2927bee|0fe123c0] (06+13/19) Accurately ripped
Track Peak [ CRC32  ] [W/O NULL] [  LOG   ]
 --   96,7 [6D9CDD2D] [C0C407BC]
 01   95,4 [402B84DD] [22D91FF9]   CRC32
 02   95,4 [68DF6C8E] [A8E7927A]   CRC32
 03   96,6 [7C60C05E] [C378EBA1]   CRC32
 04   95,4 [6436B4FE] [0B139E09]   CRC32
 05   88,3 [E5928B8A] [BACD0A29]   CRC32
 06   95,4 [59839D18] [C93466DD]   CRC32
 07   96,7 [7D8B7BE3] [DB560C16]   CRC32
 08   96,6 [8AFDD91E] [6CD9CA7F]   CRC32
 09   96,6 [7B5AD2B0] [737FCEEF]   CRC32
 10   89,4 [7CAA9875] [61741B18]   CRC32
 11   95,4 [43D7F860] [2A9356F3]   CRC32
 12   96,6 [63B16F34] [4E6846EC]   CRC32
Дополнительно:
Правила, инструкции, FAQ!!!
Торрент  Добавлен [26 мар 2019, 19:25] Скачать торрент Магнет ссылка
Скачать торрент
[ Размер 15.63 КБ / Просмотров 0 ]

Статус
Проверен 
 
Размер  580.22 МБ
Приватный: Нет (DHT включён)
.torrent скачан  0
 


     Отправить личное сообщение
   
Страница 1 из 1
Показать сообщения за:  Поле сортировки  
Начать новую тему Ответить на тему


Сейчас этот форум просматривают: нет зарегистрированных пользователей и гости: 0


Вы не можете начинать темы
Вы не можете отвечать на сообщения
Вы не можете редактировать свои сообщения
Вы не можете удалять свои сообщения
Вы не можете добавлять вложения

Перейти:  
cron