Начать новую тему Ответить на тему
Статистика раздачи
Размер: 267.38 МБ | Добавлен: 26 мар 2019, 19:34 | Скачали: 0
Сидеров: 0  [0 байт/сек]    Личеров: 0  [0 байт/сек]
Пред. тема | След. тема 

Автор
Сообщение

СообщениеДобавлено: 26 мар 2019, 19:34 

Ответить с цитатой 

Butler ~ Butler
Жанр: Pop Rock
Носитель: CD
Тип/формат: Album, Digitally Remastered
Страна-производитель диска (релиза): Germany
Год издания: 1973 (2016)
Издатель (лейбл): Slip & Slide LTD.
Номер по каталогу: 156
Страна исполнителя (группы): New Zealand
Аудиокодек: FLAC (*.flac)
Тип рипа: tracks+.cue
Битрейт аудио: lossless
Продолжительность: 00:39:53
Источник (релизер): торрент-трекер
Наличие сканов в содержимом раздачи: да
Треклист:
01. Bang Bang (4:01)
02. Sucide Ride (4:32)
03. We're Getting Nowhere (2:49)
04. In The Morning (3:07)
05. Especially For You (3:11)
06. Green River (3:32)
07. Reach Out (5:21)
08. Tilda Jane (1:40)
09. Mistake (1:50)
10. Southern Magic (2:31)
11. Here We Come (2:52)
12. Mirror Don't You Weep (4:27)
Ознакомиться можно тут: Butler - Butler 1973 (FULL ALBUM) [Progressive Hard Rock]
Код:
Exact Audio Copy V1.0 beta 6 from 9. April 2015
EAC extraction logfile from 13. December 2016, 18:35
Butler / Butler
Used drive  : hp      CDDVDW SN-208FB   Adapter: 1  ID: 0
Read mode               : Secure
Utilize accurate stream : Yes
Defeat audio cache      : Yes
Make use of C2 pointers : No
Read offset correction                      : 6
Overread into Lead-In and Lead-Out          : No
Fill up missing offset samples with silence : Yes
Delete leading and trailing silent blocks   : No
Null samples used in CRC calculations       : Yes
Used interface                              : Native Win32 interface for Win NT & 2000
Gap handling                                : Appended to previous track
Used output format              : User Defined Encoder
Selected bitrate                : 1024 kBit/s
Quality                         : High
Add ID3 tag                     : No
Command line compressor         : C:\Program Files (x86)\Exact Audio Copy\Flac\flac.exe
Additional command line options : -8 -e -V -T "ARTIST=%artist%" -T "TITLE=%title%" -T "ALBUM=%albumtitle%" -T "DATE=%year%" -T "TRACKNUMBER=%tracknr%" -T "GENRE=%genre%" -T "PERFORMER=%albuminterpret%" -T "COMPOSER=%composer%" %haslyrics%--tag-from-file=LYRICS="%lyricsfile%"%haslyrics% -T "ALBUMARTIST=%albumartist%" -T "DISCNUMBER=%cdnumber%" -T "TOTALDISCS=%totalcds%" -T "TOTALTRACKS=%numtracks%" -T "COMMENT=%comment%" %source% -o %dest%
TOC of the extracted CD
     Track |   Start  |  Length  | Start sector | End sector
    ---------------------------------------------------------
        1  |  0:00.00 |  4:00.45 |         0    |    18044
        2  |  4:00.45 |  4:32.26 |     18045    |    38470
        3  |  8:32.71 |  2:48.58 |     38471    |    51128
        4  | 11:21.54 |  3:06.48 |     51129    |    65126
        5  | 14:28.27 |  3:11.36 |     65127    |    79487
        6  | 17:39.63 |  3:32.25 |     79488    |    95412
        7  | 21:12.13 |  5:20.53 |     95413    |   119465
        8  | 26:32.66 |  1:39.57 |    119466    |   126947
        9  | 28:12.48 |  1:50.36 |    126948    |   135233
       10  | 30:03.09 |  2:30.59 |    135234    |   146542
       11  | 32:33.68 |  2:51.72 |    146543    |   159439
       12  | 35:25.65 |  4:27.10 |    159440    |   179474
Track  1
     Filename C:\Users\Windows\Desktop\Butler - Butler (1973)\01 - Bang Bang.wav
     Pre-gap length  0:00:02.00
     Peak level 96.5 %
     Extraction speed 2.2 X
     Track quality 100.0 %
     Test CRC 9471E5F9
     Copy CRC 9471E5F9
     Track not present in AccurateRip database
     Copy OK
Track  2
     Filename C:\Users\Windows\Desktop\Butler - Butler (1973)\02 - Sucide Ride.wav
     Pre-gap length  0:00:03.09
     Peak level 96.5 %
     Extraction speed 2.6 X
     Track quality 100.0 %
     Test CRC 930FA490
     Copy CRC 930FA490
     Track not present in AccurateRip database
     Copy OK
Track  3
     Filename C:\Users\Windows\Desktop\Butler - Butler (1973)\03 - We're Getting Nowhere.wav
     Pre-gap length  0:00:03.01
     Peak level 96.6 %
     Extraction speed 2.5 X
     Track quality 100.0 %
     Test CRC 413182DA
     Copy CRC 413182DA
     Track not present in AccurateRip database
     Copy OK
Track  4
     Filename C:\Users\Windows\Desktop\Butler - Butler (1973)\04 - In The Morning.wav
     Pre-gap length  0:00:03.00
     Peak level 96.6 %
     Extraction speed 2.7 X
     Track quality 100.0 %
     Test CRC D82427D6
     Copy CRC D82427D6
     Track not present in AccurateRip database
     Copy OK
Track  5
     Filename C:\Users\Windows\Desktop\Butler - Butler (1973)\05 - Especially For You.wav
     Pre-gap length  0:00:03.08
     Peak level 96.6 %
     Extraction speed 2.9 X
     Track quality 100.0 %
     Test CRC 8DCB0471
     Copy CRC 8DCB0471
     Track not present in AccurateRip database
     Copy OK
Track  6
     Filename C:\Users\Windows\Desktop\Butler - Butler (1973)\06 - Green River.wav
     Pre-gap length  0:00:02.84
     Peak level 96.5 %
     Extraction speed 3.1 X
     Track quality 100.0 %
     Test CRC DACD3FFF
     Copy CRC DACD3FFF
     Track not present in AccurateRip database
     Copy OK
Track  7
     Filename C:\Users\Windows\Desktop\Butler - Butler (1973)\07 - Reach Out.wav
     Pre-gap length  0:00:02.98
     Peak level 96.6 %
     Extraction speed 2.7 X
     Track quality 99.9 %
     Test CRC F99E15C9
     Copy CRC F99E15C9
     Track not present in AccurateRip database
     Copy OK
Track  8
     Filename C:\Users\Windows\Desktop\Butler - Butler (1973)\08 - Tilda Jane.wav
     Pre-gap length  0:00:03.93
     Peak level 96.6 %
     Extraction speed 2.9 X
     Track quality 100.0 %
     Test CRC 2B650F23
     Copy CRC 2B650F23
     Track not present in AccurateRip database
     Copy OK
Track  9
     Filename C:\Users\Windows\Desktop\Butler - Butler (1973)\09 - Mistake.wav
     Pre-gap length  0:00:03.04
     Peak level 96.6 %
     Extraction speed 2.9 X
     Track quality 100.0 %
     Test CRC 2CEABFB1
     Copy CRC 2CEABFB1
     Track not present in AccurateRip database
     Copy OK
Track 10
     Filename C:\Users\Windows\Desktop\Butler - Butler (1973)\10 - Southern Magic.wav
     Pre-gap length  0:00:03.13
     Peak level 96.5 %
     Extraction speed 2.7 X
     Track quality 100.0 %
     Test CRC D2B074ED
     Copy CRC D2B074ED
     Track not present in AccurateRip database
     Copy OK
Track 11
     Filename C:\Users\Windows\Desktop\Butler - Butler (1973)\11 - Here We Come.wav
     Pre-gap length  0:00:02.97
     Peak level 96.5 %
     Extraction speed 2.4 X
     Track quality 99.9 %
     Test CRC 619168DD
     Copy CRC 619168DD
     Track not present in AccurateRip database
     Copy OK
Track 12
     Filename C:\Users\Windows\Desktop\Butler - Butler (1973)\12 - Mirror Don't You Weep.wav
     Pre-gap length  0:00:03.01
     Peak level 96.3 %
     Extraction speed 3.8 X
     Track quality 100.0 %
     Test CRC 1E17F843
     Copy CRC 1E17F843
     Track not present in AccurateRip database
     Copy OK
None of the tracks are present in the AccurateRip database
No errors occurred
End of status report
---- CUETools DB Plugin V2.1.6
[CTDB TOCID: mS7N.Au2nEb4VJqYHNmUUsJso8Y-] found
Submit result: already submitted
Track | CTDB Status
  1   | (1/1) Accurately ripped
  2   | (1/1) Accurately ripped
  3   | (1/1) Accurately ripped
  4   | (1/1) Accurately ripped
  5   | (1/1) Accurately ripped
  6   | (1/1) Accurately ripped
  7   | (1/1) Accurately ripped
  8   | (1/1) Accurately ripped
  9   | (1/1) Accurately ripped
 10   | (1/1) Accurately ripped
 11   | (1/1) Accurately ripped
 12   | (1/1) Accurately ripped
==== Log checksum E0686A59109DD9D6F5F6DC1AF10900EBE104915D2479BFE70231DA928E23057F ====
Код:
REM GENRE Rock
REM DATE 1973
REM DISCID 9F09590C
REM COMMENT "ExactAudioCopy v1.0b6"
PERFORMER "Butler"
TITLE "Butler"
FILE "01 - Bang Bang.wav" WAVE
  TRACK 01 AUDIO
    TITLE "Bang Bang"
    PERFORMER "Butler"
    INDEX 01 00:00:00
  TRACK 02 AUDIO
    TITLE "Sucide Ride"
    PERFORMER "Butler"
    INDEX 00 03:57:38
FILE "02 - Sucide Ride.wav" WAVE
    INDEX 01 00:00:00
  TRACK 03 AUDIO
    TITLE "We're Getting Nowhere"
    PERFORMER "Butler"
    INDEX 00 04:29:25
FILE "03 - We're Getting Nowhere.wav" WAVE
    INDEX 01 00:00:00
  TRACK 04 AUDIO
    TITLE "In The Morning"
    PERFORMER "Butler"
    INDEX 00 02:45:58
FILE "04 - In The Morning.wav" WAVE
    INDEX 01 00:00:00
  TRACK 05 AUDIO
    TITLE "Especially For You"
    PERFORMER "Butler"
    INDEX 00 03:03:42
FILE "05 - Especially For You.wav" WAVE
    INDEX 01 00:00:00
  TRACK 06 AUDIO
    TITLE "Green River"
    PERFORMER "Butler"
    INDEX 00 03:08:48
FILE "06 - Green River.wav" WAVE
    INDEX 01 00:00:00
  TRACK 07 AUDIO
    TITLE "Reach Out"
    PERFORMER "Butler"
    INDEX 00 03:29:26
FILE "07 - Reach Out.wav" WAVE
    INDEX 01 00:00:00
  TRACK 08 AUDIO
    TITLE "Tilda Jane"
    PERFORMER "Butler"
    INDEX 00 05:16:58
FILE "08 - Tilda Jane.wav" WAVE
    INDEX 01 00:00:00
  TRACK 09 AUDIO
    TITLE "Mistake"
    PERFORMER "Butler"
    INDEX 00 01:36:54
FILE "09 - Mistake.wav" WAVE
    INDEX 01 00:00:00
  TRACK 10 AUDIO
    TITLE "Southern Magic"
    PERFORMER "Butler"
    INDEX 00 01:47:26
FILE "10 - Southern Magic.wav" WAVE
    INDEX 01 00:00:00
  TRACK 11 AUDIO
    TITLE "Here We Come"
    PERFORMER "Butler"
    INDEX 00 02:27:61
FILE "11 - Here We Come.wav" WAVE
    INDEX 01 00:00:00
  TRACK 12 AUDIO
    TITLE "Mirror Don't You Weep"
    PERFORMER "Butler"
    INDEX 00 02:48:71
FILE "12 - Mirror Don't You Weep.wav" WAVE
    INDEX 01 00:00:00
Код:
[CUETools log; Date: 20.12.2016 23:46:25; Version: 2.1.6]
[CTDB TOCID: mS7N.Au2nEb4VJqYHNmUUsJso8Y-] found.
Track | CTDB Status
  1   | (1/1) Accurately ripped
  2   | (1/1) Accurately ripped
  3   | (1/1) Accurately ripped
  4   | (1/1) Accurately ripped
  5   | (1/1) Accurately ripped
  6   | (1/1) Accurately ripped
  7   | (1/1) Accurately ripped
  8   | (1/1) Accurately ripped
  9   | (1/1) Accurately ripped
 10   | (1/1) Accurately ripped
 11   | (1/1) Accurately ripped
 12   | (1/1) Accurately ripped
[AccurateRip ID: 0012893b-00a9ea0e-9f09590c] disk not present in database.
Track Peak [ CRC32  ] [W/O NULL] [  LOG   ]
 --   96,6 [EF4A0307] [016E082E]
 01   96,5 [9471E5F9] [D7310609]   CRC32
 02   96,5 [930FA490] [315BDE20]   CRC32
 03   96,6 [413182DA] [422D8F57]   CRC32
 04   96,6 [D82427D6] [A8B44D93]   CRC32
 05   96,6 [8DCB0471] [B4568D80]   CRC32
 06   96,5 [DACD3FFF] [4304397C]   CRC32
 07   96,6 [F99E15C9] [479E074E]   CRC32
 08   96,6 [2B650F23] [F2559FE3]   CRC32
 09   96,6 [2CEABFB1] [51ABF881]   CRC32
 10   96,5 [D2B074ED] [8BEA656B]   CRC32
 11   96,5 [619168DD] [34FD711D]   CRC32
 12   96,3 [1E17F843] [FB7592A0]   CRC32
Код:
-----------------------
DON'T MODIFY THIS FILE
-----------------------
PERFORMER: auCDtect Task Manager, ver. 1.6.0 RC1 build 1.6.0.1
Copyright (c) 2008-2010 y-soft. All rights reserved
[url=http://y-soft.org]http://y-soft.org[/url]
ANALYZER: auCDtect: CD records authenticity detector, version 0.8.2
Copyright (c) 2004 Oleg Berngardt. All rights reserved.
Copyright (c) 2004 Alexander Djourik. All rights reserved.
FILE: 12 - Mirror Don't You Weep.flac
  Size: 26483041 Hash: 1E20CD2B76BF4CCD375875A18FEDCE7E Accuracy: -m0
  Conclusion: CDDA 99%
  Signature: 2F63A7627D4E2B60E6DC8240DE4ABEE8150B2B2B
FILE: 11 - Here We Come.flac
  Size: 18170246 Hash: E98288E9325F3A80E23E3255E520CA9A Accuracy: -m0
  Conclusion: CDDA 100%
  Signature: C1103B06C0B51E5D17B5314D27E01B118A7FABF6
FILE: 10 - Southern Magic.flac
  Size: 15461697 Hash: 42A13E212E5A44C95AAAA98DD1FA972B Accuracy: -m0
  Conclusion: CDDA 100%
  Signature: 67E6AE5F616F950684D1EABF564E5A93C6D04EAA
FILE: 09 - Mistake.flac
  Size: 10936198 Hash: 2AE68D676F524253B8B6E094F7727366 Accuracy: -m0
  Conclusion: CDDA 100%
  Signature: FA03A29FC9046C5E077393882EF1BA7F2D9B076D
FILE: 08 - Tilda Jane.flac
  Size: 10745901 Hash: 4681241994F32DCFD0F2A5639CB23691 Accuracy: -m0
  Conclusion: CDDA 100%
  Signature: 4DDEECBAA4CE8D3E92EA7C5A1D512A3C6DE58E8B
FILE: 07 - Reach Out.flac
  Size: 28278762 Hash: 65261084AA5E99DC77D13E4C4ACBD9D3 Accuracy: -m0
  Conclusion: CDDA 99%
  Signature: 62522FDA71E6BD7203896496D92B4951C3ED52B0
FILE: 06 - Green River.flac
  Size: 20595249 Hash: 8868C406882DB2A8CA01506AFDE867C8 Accuracy: -m0
  Conclusion: CDDA 100%
  Signature: 5754F141C0B52B5A80FD2EF42FE201C1E9CF9906
FILE: 05 - Especially For You.flac
  Size: 21119082 Hash: 7C375DD94BC8BFA192D74B5A8211A58E Accuracy: -m0
  Conclusion: CDDA 100%
  Signature: 7E9FF35D4291A3764E377B0D41C5B2A09840415D
FILE: 04 - In The Morning.flac
  Size: 17225147 Hash: C1BE8478771B314BD86FC5F2CA50CBCD Accuracy: -m0
  Conclusion: CDDA 99%
  Signature: 2658C56ECC49FD2ACDB3DF12E2BDB0D22A6D3047
FILE: 03 - We're Getting Nowhere.flac
  Size: 17682234 Hash: EBAAEA91B8ACB841FD2BB5B25AE4641B Accuracy: -m0
  Conclusion: CDDA 100%
  Signature: 12538B495AA95C6A95888C7BB84256DBB86F48B7
FILE: 02 - Sucide Ride.flac
  Size: 25705931 Hash: 82149FD1E3030DD95CB5359B1133BAC5 Accuracy: -m0
  Conclusion: CDDA 100%
  Signature: 0F9E56FCC36A204A3B48AC2E72A2AC13F5937B51
FILE: 01 - Bang Bang.flac
  Size: 21219956 Hash: 600E30D467258C7A669822732A93E826 Accuracy: -m0
  Conclusion: CDDA 99%
  Signature: 07223C5E0D8E8C6433CAF041682D94B6F44464B0
Код:
foobar2000 1.2.9 / Dynamic Range Meter 1.1.1
log date: 2016-12-20 23:33:06
--------------------------------------------------------------------------------
Analyzed: Butler / Butler
--------------------------------------------------------------------------------
DR         Peak         RMS     Duration Track
--------------------------------------------------------------------------------
DR11      -0.30 dB   -13.56 dB      4:01 01-Bang Bang
DR11      -0.30 dB   -14.64 dB      4:32 02-Sucide Ride
DR9       -0.30 dB   -10.80 dB      2:49 03-We're Getting Nowhere
DR8       -0.30 dB   -10.01 dB      3:07 04-In The Morning
DR9       -0.30 dB   -10.72 dB      3:11 05-Especially For You
DR10      -0.30 dB   -11.54 dB      3:32 06-Green River
DR8       -0.30 dB   -11.06 dB      5:21 07-Reach Out
DR9       -0.30 dB   -11.25 dB      1:40 08-Tilda Jane
DR10      -0.30 dB   -12.03 dB      1:50 09-Mistake
DR11      -0.30 dB   -12.45 dB      2:31 10-Southern Magic
DR11      -0.30 dB   -11.83 dB      2:52 11-Here We Come
DR12      -0.33 dB   -14.01 dB      4:27 12-Mirror Don't You Weep
--------------------------------------------------------------------------------
Number of tracks:  12
Official DR value: DR10
Samplerate:        44100 Hz
Channels:          2
Bits per sample:   16
Bitrate:           793 kbps
Codec:             FLAC
================================================================================
"Четверка тинейджеров с улицы Kids из новозеландского городка Rotorua организовала группу Butler в 1970 году. Это была одна из немногих групп, в составе которой были представители коренного населения - маори. Группа была названа в честь их шестнадцатилетнего друга Butler Mohi, погибшего в автокатастрофе. В 1973 году был записан первый и единственный альбом группы, который был выпущен через полтора года лейблом Family компании PYE RECORDS. В музыке Butler чувствуется влияние Led Zeppelin и Wishbone Ash. В дальнейшем Steve Apirana стал популярным исполнителем в Новой Зеландии."

(Pop Rock) Butler - Butler - 1973, MP3 (tracks), 320 kbps
Правила, инструкции, FAQ!!!
Торрент  Добавлен [26 мар 2019, 19:34] Скачать торрент Магнет ссылка
Скачать торрент
[ Размер 12.07 КБ / Просмотров 3 ]

Статус
Проверен 
 
Размер  267.38 МБ
Приватный: Нет (DHT включён)
.torrent скачан  0
 


     Отправить личное сообщение
   
Страница 1 из 1
Показать сообщения за:  Поле сортировки  
Начать новую тему Ответить на тему


Сейчас этот форум просматривают: нет зарегистрированных пользователей и гости: 0


Вы не можете начинать темы
Вы не можете отвечать на сообщения
Вы не можете редактировать свои сообщения
Вы не можете удалять свои сообщения
Вы не можете добавлять вложения

Перейти:  
cron