Начать новую тему Ответить на тему
Статистика раздачи
Размер: 1.1 ГБ | Добавлен: 28 апр 2020, 19:49 | Скачали: 0
Сидеров: 5  [0 байт/сек]    Личеров: 1  [0 байт/сек]
Пред. тема | След. тема 

Автор
Сообщение

СообщениеДобавлено: 28 апр 2020, 19:49 

Ответить с цитатой 

The Archies / Sugar, Sugar - The Complete Albums Collection (2016, 5CD BOX Goldenlane Rs)
Жанр: Pop Rock, Bubblegum
Носитель: CD
Страна-производитель диска (релиза): USA
Год издания: 2016
Издатель (лейбл): Goldenlane Rs
Номер по каталогу: CLO0379CD
Страна исполнителя (группы): USA
Аудиокодек: WavPack (*.wv)
Тип рипа: image+.cue
Продолжительность: 2h:26m:33s
Источник: собственный рип издания из коллекции
Наличие сканов в содержимом раздачи: да
Треклист:
#77701. Archies' Theme (Everything's Archie) [0:01:37.35]
02. Boys and Girls [0:02:13.32]
03. Time For Love [0:02:18.20]
04. You Make Me Wanna Dance [0:02:26.47]
05. La Dee Doo Down Down [0:02:11.39]
06. Truck Driver [0:02:53.57]
07. Catchin' Up on Fun [0:02:14.72]
08. I'm In Love [0:02:23.27]
09. Seventeen Ain't Young [0:02:17.66]
10. Ride, Ride, Ride [0:02:11.55]
11. Hide and Seek [0:02:28.31]
12. Bang-Shang-A-Lang [0:02:31.74]
Код:
Exact Audio Copy V1.3 from 2. September 2016
EAC extraction logfile from 28. March 2020, 10:37
The Archies / The Archies (Disc 1 Complete Album Collection)
Used drive  : PLEXTOR DVDR   PX-880SA   Adapter: 1  ID: 0
Read mode               : Secure
Utilize accurate stream : Yes
Defeat audio cache      : Yes
Make use of C2 pointers : No
Read offset correction                      : 6
Overread into Lead-In and Lead-Out          : No
Fill up missing offset samples with silence : Yes
Delete leading and trailing silent blocks   : No
Null samples used in CRC calculations       : Yes
Used interface                              : Native Win32 interface for Win NT & 2000
Used output format              : User Defined Encoder
Selected bitrate                : 1024 kBit/s
Quality                         : High
Add ID3 tag                     : No
Command line compressor         : C:\Program Files (x86)\Exact Audio Copy\wavpack.exe
Additional command line options : -lm %source%
TOC of the extracted CD
     Track |   Start  |  Length  | Start sector | End sector
    ---------------------------------------------------------
        1  |  0:00.00 |  1:37.35 |         0    |     7309
        2  |  1:37.35 |  2:13.32 |      7310    |    17316
        3  |  3:50.67 |  2:18.20 |     17317    |    27686
        4  |  6:09.12 |  2:26.47 |     27687    |    38683
        5  |  8:35.59 |  2:11.39 |     38684    |    48547
        6  | 10:47.23 |  2:53.57 |     48548    |    61579
        7  | 13:41.05 |  2:14.72 |     61580    |    71701
        8  | 15:56.02 |  2:23.27 |     71702    |    82453
        9  | 18:19.29 |  2:17.66 |     82454    |    92794
       10  | 20:37.20 |  2:11.55 |     92795    |   102674
       11  | 22:49.00 |  2:28.31 |    102675    |   113805
       12  | 25:17.31 |  2:31.74 |    113806    |   125204
Range status and errors
Selected range
     Filename D:\wwphil\The Archies - The Archies (Disc 1 Complete Album Collection)\The Archies - The Archies (Disc 1 Complete Album Collection).wav
     Peak level 99.7 %
     Extraction speed 3.7 X
     Range quality 100.0 %
     Test CRC 14FDECCE
     Copy CRC 14FDECCE
     Copy OK
No errors occurred
AccurateRip summary
Track  1  accurately ripped (confidence 6)  [F509E3BE]  (AR v2)
Track  2  accurately ripped (confidence 6)  [5011E0A8]  (AR v2)
Track  3  accurately ripped (confidence 6)  [F3465330]  (AR v2)
Track  4  accurately ripped (confidence 6)  [58340642]  (AR v2)
Track  5  accurately ripped (confidence 6)  [99C07994]  (AR v2)
Track  6  accurately ripped (confidence 6)  [88BC4D17]  (AR v2)
Track  7  accurately ripped (confidence 6)  [9331F0B0]  (AR v2)
Track  8  accurately ripped (confidence 6)  [36EA8444]  (AR v2)
Track  9  accurately ripped (confidence 6)  [268626F9]  (AR v2)
Track 10  accurately ripped (confidence 6)  [4164107A]  (AR v2)
Track 11  accurately ripped (confidence 6)  [E0A59B4D]  (AR v2)
Track 12  accurately ripped (confidence 6)  [C6F079FD]  (AR v2)
All tracks accurately ripped
End of status report
==== Log checksum CB33CCCAA4DF15F3B3661B464BD628AD4583581FE76E303D67071B12047F2655 ====
Код:
REM GENRE Pop
REM DATE 2016
REM DISCID 9706850C
REM COMMENT "ExactAudioCopy v1.3"
PERFORMER "The Archies"
TITLE "The Archies (Disc 1 Complete Album Collection)"
REM COMPOSER ""
FILE "The Archies - The Archies (Disc 1 Complete Album Collection).wv" WAVE
  TRACK 01 AUDIO
    TITLE "Archies' Theme (Everything's Archie)"
    PERFORMER "The Archies"
    REM COMPOSER ""
    INDEX 01 00:00:00
  TRACK 02 AUDIO
    TITLE "Boys and Girls"
    PERFORMER "The Archies"
    REM COMPOSER ""
    INDEX 01 01:37:35
  TRACK 03 AUDIO
    TITLE "Time For Love"
    PERFORMER "The Archies"
    REM COMPOSER ""
    INDEX 01 03:50:67
  TRACK 04 AUDIO
    TITLE "You Make Me Wanna Dance"
    PERFORMER "The Archies"
    REM COMPOSER ""
    INDEX 01 06:09:12
  TRACK 05 AUDIO
    TITLE "La Dee Doo Down Down"
    PERFORMER "The Archies"
    REM COMPOSER ""
    INDEX 01 08:35:59
  TRACK 06 AUDIO
    TITLE "Truck Driver"
    PERFORMER "The Archies"
    REM COMPOSER ""
    INDEX 01 10:47:23
  TRACK 07 AUDIO
    TITLE "Catchin' Up on Fun"
    PERFORMER "The Archies"
    REM COMPOSER ""
    INDEX 01 13:41:05
  TRACK 08 AUDIO
    TITLE "I'm In Love"
    PERFORMER "The Archies"
    REM COMPOSER ""
    INDEX 01 15:56:02
  TRACK 09 AUDIO
    TITLE "Seventeen Ain't Young"
    PERFORMER "The Archies"
    REM COMPOSER ""
    INDEX 01 18:19:29
  TRACK 10 AUDIO
    TITLE "Ride, Ride, Ride"
    PERFORMER "The Archies"
    REM COMPOSER ""
    INDEX 01 20:37:20
  TRACK 11 AUDIO
    TITLE "Hide and Seek"
    PERFORMER "The Archies"
    REM COMPOSER ""
    INDEX 01 22:49:00
  TRACK 12 AUDIO
    TITLE "Bang-Shang-A-Lang"
    PERFORMER "The Archies"
    REM COMPOSER ""
    INDEX 01 25:17:31
#77701. Feelin' So Good (S.K.O.O.B.Y-D.O.O.) [0:03:09.01]
02. Melody Hill [0:02:23.74]
03. Rock & Roll Music [0:02:32.23]
04. Kissin' [0:02:26.60]
05. Don't Touch My Guitar [0:02:15.16]
06. Circle Of Blue [0:02:17.20]
07. Sugar, Sugar [0:02:44.71]
08. You Little Angel, You [0:02:37.24]
09. Bicycles, Roller Skates & You [0:02:33.38]
10. Hot Dog [0:02:18.70]
11. Inside-Out-Upside Down [0:02:13.22]
12. Love Light [0:02:29.68]
Код:
Exact Audio Copy V1.3 from 2. September 2016
EAC extraction logfile from 28. March 2020, 11:02
The Archies / Everything's Archie (Disc 2 Complete Album Collection)
Used drive  : PLEXTOR DVDR   PX-880SA   Adapter: 1  ID: 0
Read mode               : Secure
Utilize accurate stream : Yes
Defeat audio cache      : Yes
Make use of C2 pointers : No
Read offset correction                      : 6
Overread into Lead-In and Lead-Out          : No
Fill up missing offset samples with silence : Yes
Delete leading and trailing silent blocks   : No
Null samples used in CRC calculations       : Yes
Used interface                              : Native Win32 interface for Win NT & 2000
Used output format              : User Defined Encoder
Selected bitrate                : 1024 kBit/s
Quality                         : High
Add ID3 tag                     : No
Command line compressor         : C:\Program Files (x86)\Exact Audio Copy\wavpack.exe
Additional command line options : -lm %source%
TOC of the extracted CD
     Track |   Start  |  Length  | Start sector | End sector
    ---------------------------------------------------------
        1  |  0:00.00 |  3:09.01 |         0    |    14175
        2  |  3:09.01 |  2:23.74 |     14176    |    24974
        3  |  5:33.00 |  2:32.23 |     24975    |    36397
        4  |  8:05.23 |  2:26.60 |     36398    |    47407
        5  | 10:32.08 |  2:15.16 |     47408    |    57548
        6  | 12:47.24 |  2:17.20 |     57549    |    67843
        7  | 15:04.44 |  2:44.71 |     67844    |    80214
        8  | 17:49.40 |  2:37.24 |     80215    |    92013
        9  | 20:26.64 |  2:33.38 |     92014    |   103526
       10  | 23:00.27 |  2:18.70 |    103527    |   113946
       11  | 25:19.22 |  2:13.22 |    113947    |   123943
       12  | 27:32.44 |  2:29.68 |    123944    |   135186
Range status and errors
Selected range
     Filename D:\wwphil\The Archies - Everything's Archie (Disc 2 Complete Album Collection)\The Archies - Everything's Archie (Disc 2 Complete Album Collection).wav
     Peak level 100.0 %
     Extraction speed 3.8 X
     Range quality 100.0 %
     Test CRC 1B046746
     Copy CRC 1B046746
     Copy OK
No errors occurred
AccurateRip summary
Track  1  accurately ripped (confidence 6)  [A4637488]  (AR v2)
Track  2  accurately ripped (confidence 6)  [78C3E87F]  (AR v2)
Track  3  accurately ripped (confidence 6)  [140B50BE]  (AR v2)
Track  4  accurately ripped (confidence 6)  [D0367C14]  (AR v2)
Track  5  accurately ripped (confidence 6)  [AB938DBA]  (AR v2)
Track  6  accurately ripped (confidence 6)  [7D9B1C2B]  (AR v2)
Track  7  accurately ripped (confidence 6)  [21383334]  (AR v2)
Track  8  accurately ripped (confidence 6)  [EA8B0D27]  (AR v2)
Track  9  accurately ripped (confidence 6)  [A49EE62F]  (AR v2)
Track 10  accurately ripped (confidence 6)  [01B80853]  (AR v2)
Track 11  accurately ripped (confidence 6)  [7398D849]  (AR v2)
Track 12  accurately ripped (confidence 6)  [55FFFFC5]  (AR v2)
All tracks accurately ripped
End of status report
==== Log checksum 2EE84AC025344C59902BF202C135028785227FC4EA466AD7D1A0E4C26D34FB84 ====
Код:
REM GENRE "Pop Rock"
REM DATE 2016
REM DISCID 9A070A0C
REM COMMENT "ExactAudioCopy v1.3"
PERFORMER "The Archies"
TITLE "Everything's Archie (Disc 2 Complete Album Collection)"
REM COMPOSER ""
FILE "The Archies - Everything's Archie (Disc 2 Complete Album Collection).wv" WAVE
  TRACK 01 AUDIO
    TITLE "Feelin' So Good (S.K.O.O.B.Y-D.O.O.)"
    PERFORMER "The Archies"
    REM COMPOSER ""
    INDEX 01 00:00:00
  TRACK 02 AUDIO
    TITLE "Melody Hill"
    PERFORMER "The Archies"
    REM COMPOSER ""
    INDEX 01 03:09:01
  TRACK 03 AUDIO
    TITLE "Rock & Roll Music"
    PERFORMER "The Archies"
    REM COMPOSER ""
    INDEX 01 05:33:00
  TRACK 04 AUDIO
    TITLE "Kissin'"
    PERFORMER "The Archies"
    REM COMPOSER ""
    INDEX 01 08:05:23
  TRACK 05 AUDIO
    TITLE "Don't Touch My Guitar"
    PERFORMER "The Archies"
    REM COMPOSER ""
    INDEX 01 10:32:08
  TRACK 06 AUDIO
    TITLE "Circle Of Blue"
    PERFORMER "The Archies"
    REM COMPOSER ""
    INDEX 01 12:47:24
  TRACK 07 AUDIO
    TITLE "Sugar, Sugar"
    PERFORMER "The Archies"
    REM COMPOSER ""
    INDEX 01 15:04:44
  TRACK 08 AUDIO
    TITLE "You Little Angel, You"
    PERFORMER "The Archies"
    REM COMPOSER ""
    INDEX 01 17:49:40
  TRACK 09 AUDIO
    TITLE "Bicycles, Roller Skates & You"
    PERFORMER "The Archies"
    REM COMPOSER ""
    INDEX 01 20:26:64
  TRACK 10 AUDIO
    TITLE "Hot Dog"
    PERFORMER "The Archies"
    REM COMPOSER ""
    INDEX 01 23:00:27
  TRACK 11 AUDIO
    TITLE "Inside-Out-Upside Down"
    PERFORMER "The Archies"
    REM COMPOSER ""
    INDEX 01 25:19:22
  TRACK 12 AUDIO
    TITLE "Love Light"
    PERFORMER "The Archies"
    REM COMPOSER ""
    INDEX 01 27:32:44
#77701. Jingle Jangle [0:02:41.68]
02. Everything's Alright [0:02:16.67]
03. She's Putting Me Through Changes [0:02:16.35]
04. Justine [0:02:14.56]
05. Whoopee Tie Ai A [0:02:10.71]
06. Nursery Rhyme [0:02:32.67]
07. Get On The Line [0:02:31.24]
08. You Know I Love You [0:02:14.30]
09. Senorita Rita [0:02:27.02]
10. Look Before You Leap [0:02:14.42]
11. Sugar And Spice [0:02:03.05]
12. Archie's Party [0:02:11.20]
Код:
Exact Audio Copy V1.3 from 2. September 2016
EAC extraction logfile from 28. March 2020, 11:36
The Archies / Jingle Jangle (Disc 3 Complete Album Collection)
Used drive  : PLEXTOR DVDR   PX-880SA   Adapter: 1  ID: 0
Read mode               : Secure
Utilize accurate stream : Yes
Defeat audio cache      : Yes
Make use of C2 pointers : No
Read offset correction                      : 6
Overread into Lead-In and Lead-Out          : No
Fill up missing offset samples with silence : Yes
Delete leading and trailing silent blocks   : No
Null samples used in CRC calculations       : Yes
Used interface                              : Native Win32 interface for Win NT & 2000
Used output format              : User Defined Encoder
Selected bitrate                : 1024 kBit/s
Quality                         : High
Add ID3 tag                     : No
Command line compressor         : C:\Program Files (x86)\Exact Audio Copy\wavpack.exe
Additional command line options : -lm %source%
TOC of the extracted CD
     Track |   Start  |  Length  | Start sector | End sector
    ---------------------------------------------------------
        1  |  0:00.00 |  2:41.68 |         0    |    12142
        2  |  2:41.68 |  2:16.67 |     12143    |    22409
        3  |  4:58.60 |  2:16.35 |     22410    |    32644
        4  |  7:15.20 |  2:14.56 |     32645    |    42750
        5  |  9:30.01 |  2:10.71 |     42751    |    52571
        6  | 11:40.72 |  2:32.67 |     52572    |    64038
        7  | 14:13.64 |  2:31.24 |     64039    |    75387
        8  | 16:45.13 |  2:14.30 |     75388    |    85467
        9  | 18:59.43 |  2:27.02 |     85468    |    96494
       10  | 21:26.45 |  2:14.42 |     96495    |   106586
       11  | 23:41.12 |  2:03.05 |    106587    |   115816
       12  | 25:44.17 |  2:11.20 |    115817    |   125661
Range status and errors
Selected range
     Filename D:\wwphil\The Archies - Jingle Jangle (Disc 3 Complete Album Collection)\The Archies - Jingle Jangle (Disc 3 Complete Album Collection).wav
     Peak level 100.0 %
     Extraction speed 3.7 X
     Range quality 100.0 %
     Test CRC 6D1FD84B
     Copy CRC 6D1FD84B
     Copy OK
No errors occurred
AccurateRip summary
Track  1  accurately ripped (confidence 6)  [C65FC377]  (AR v2)
Track  2  accurately ripped (confidence 6)  [D07C3B5B]  (AR v2)
Track  3  accurately ripped (confidence 6)  [26183CAE]  (AR v2)
Track  4  accurately ripped (confidence 6)  [C14B82E4]  (AR v2)
Track  5  accurately ripped (confidence 6)  [12DBF488]  (AR v2)
Track  6  accurately ripped (confidence 6)  [974BACD9]  (AR v2)
Track  7  accurately ripped (confidence 6)  [37560C2F]  (AR v2)
Track  8  accurately ripped (confidence 6)  [665CF5B7]  (AR v2)
Track  9  accurately ripped (confidence 6)  [D3522FB4]  (AR v2)
Track 10  accurately ripped (confidence 6)  [279BB978]  (AR v2)
Track 11  accurately ripped (confidence 6)  [3BAFD5B1]  (AR v2)
Track 12  accurately ripped (confidence 6)  [92C61B1F]  (AR v2)
All tracks accurately ripped
End of status report
==== Log checksum 0C071D75B33E565783422FE3336CC0DA2583057879571A635D7D685ED21F49DF ====
Код:
REM GENRE "Pop Rock"
REM DATE 2016
REM DISCID 82068B0C
REM COMMENT "ExactAudioCopy v1.3"
PERFORMER "The Archies"
TITLE "Jingle Jangle (Disc 3 Complete Album Collection)"
REM COMPOSER ""
FILE "The Archies - Jingle Jangle (Disc 3 Complete Album Collection).wv" WAVE
  TRACK 01 AUDIO
    TITLE "Jingle Jangle"
    PERFORMER "The Archies"
    REM COMPOSER ""
    INDEX 01 00:00:00
  TRACK 02 AUDIO
    TITLE "Everything's Alright"
    PERFORMER "The Archies"
    REM COMPOSER ""
    INDEX 01 02:41:68
  TRACK 03 AUDIO
    TITLE "She's Putting Me Through Changes"
    PERFORMER "The Archies"
    REM COMPOSER ""
    INDEX 01 04:58:60
  TRACK 04 AUDIO
    TITLE "Justine"
    PERFORMER "The Archies"
    REM COMPOSER ""
    INDEX 01 07:15:20
  TRACK 05 AUDIO
    TITLE "Whoopee Tie Ai A"
    PERFORMER "The Archies"
    REM COMPOSER ""
    INDEX 01 09:30:01
  TRACK 06 AUDIO
    TITLE "Nursery Rhyme"
    PERFORMER "The Archies"
    REM COMPOSER ""
    INDEX 01 11:40:72
  TRACK 07 AUDIO
    TITLE "Get On The Line"
    PERFORMER "The Archies"
    REM COMPOSER ""
    INDEX 01 14:13:64
  TRACK 08 AUDIO
    TITLE "You Know I Love You"
    PERFORMER "The Archies"
    REM COMPOSER ""
    INDEX 01 16:45:13
  TRACK 09 AUDIO
    TITLE "Senorita Rita"
    PERFORMER "The Archies"
    REM COMPOSER ""
    INDEX 01 18:59:43
  TRACK 10 AUDIO
    TITLE "Look Before You Leap"
    PERFORMER "The Archies"
    REM COMPOSER ""
    INDEX 01 21:26:45
  TRACK 11 AUDIO
    TITLE "Sugar And Spice"
    PERFORMER "The Archies"
    REM COMPOSER ""
    INDEX 01 23:41:12
  TRACK 12 AUDIO
    TITLE "Archie's Party"
    PERFORMER "The Archies"
    REM COMPOSER ""
    INDEX 01 25:44:17
#77701. Sunshine [0:03:18.50]
02. Who's Gonna Love Me [0:01:50.39]
03. Mr. Factory [0:02:32.41]
04. Love And Rock 'N' Roll Music [0:02:18.60]
05. Over And Over [0:02:19.49]
06. Waldo P. Emerson Jones [0:02:36.46]
07. A Summer Prayer For Peace [0:02:48.72]
08. Dance [0:02:19.22]
09. Comes The Sun [0:02:24.13]
10. Suddenly Susan [0:02:17.14]
11. One Big Family [0:01:53.02]
12. It's The Summertime [0:02:49.08]
Код:
Exact Audio Copy V1.3 from 2. September 2016
EAC extraction logfile from 28. March 2020, 12:07
The Archies / Sunshine (Disc 4 Complete Album Collection)
Used drive  : PLEXTOR DVDR   PX-880SA   Adapter: 1  ID: 0
Read mode               : Secure
Utilize accurate stream : Yes
Defeat audio cache      : Yes
Make use of C2 pointers : No
Read offset correction                      : 6
Overread into Lead-In and Lead-Out          : No
Fill up missing offset samples with silence : Yes
Delete leading and trailing silent blocks   : No
Null samples used in CRC calculations       : Yes
Used interface                              : Native Win32 interface for Win NT & 2000
Used output format              : User Defined Encoder
Selected bitrate                : 1024 kBit/s
Quality                         : High
Add ID3 tag                     : No
Command line compressor         : C:\Program Files (x86)\Exact Audio Copy\wavpack.exe
Additional command line options : -lm %source%
TOC of the extracted CD
     Track |   Start  |  Length  | Start sector | End sector
    ---------------------------------------------------------
        1  |  0:00.00 |  3:18.50 |         0    |    14899
        2  |  3:18.50 |  1:50.39 |     14900    |    23188
        3  |  5:09.14 |  2:32.41 |     23189    |    34629
        4  |  7:41.55 |  2:18.60 |     34630    |    45039
        5  | 10:00.40 |  2:19.49 |     45040    |    55513
        6  | 12:20.14 |  2:36.46 |     55514    |    67259
        7  | 14:56.60 |  2:48.72 |     67260    |    79931
        8  | 17:45.57 |  2:19.22 |     79932    |    90378
        9  | 20:05.04 |  2:24.13 |     90379    |   101191
       10  | 22:29.17 |  2:17.14 |    101192    |   111480
       11  | 24:46.31 |  1:53.02 |    111481    |   119957
       12  | 26:39.33 |  2:49.08 |    119958    |   132640
Range status and errors
Selected range
     Filename D:\wwphil\The Archies - Sunshine (Disc 4 Complete Album Collection)\The Archies - Sunshine (Disc 4 Complete Album Collection).wav
     Peak level 100.0 %
     Extraction speed 3.7 X
     Range quality 99.9 %
     Test CRC F60EF916
     Copy CRC F60EF916
     Copy OK
No errors occurred
AccurateRip summary
Track  1  accurately ripped (confidence 6)  [6FC0F141]  (AR v2)
Track  2  accurately ripped (confidence 6)  [1804DD8D]  (AR v2)
Track  3  accurately ripped (confidence 6)  [D5027B1C]  (AR v2)
Track  4  accurately ripped (confidence 6)  [A2DC969F]  (AR v2)
Track  5  accurately ripped (confidence 6)  [FE788D27]  (AR v2)
Track  6  accurately ripped (confidence 6)  [956FAEBD]  (AR v2)
Track  7  accurately ripped (confidence 6)  [B58D2418]  (AR v2)
Track  8  accurately ripped (confidence 6)  [8E630E70]  (AR v2)
Track  9  accurately ripped (confidence 6)  [F0828A60]  (AR v2)
Track 10  accurately ripped (confidence 6)  [91351330]  (AR v2)
Track 11  accurately ripped (confidence 6)  [BB8ECF15]  (AR v2)
Track 12  accurately ripped (confidence 6)  [CB223DBA]  (AR v2)
All tracks accurately ripped
End of status report
==== Log checksum 292788654593B1D1F3ECD596B85EDFCDC06729D8F466A4E0EB2E304BA9408B56 ====
Код:
REM GENRE "Pop Rock"
REM DATE 2016
REM DISCID 8306E80C
REM COMMENT "ExactAudioCopy v1.3"
PERFORMER "The Archies"
TITLE "Sunshine (Disc 4 Complete Album Collection)"
REM COMPOSER ""
FILE "The Archies - Sunshine (Disc 4 Complete Album Collection).wv" WAVE
  TRACK 01 AUDIO
    TITLE "Sunshine"
    PERFORMER "The Archies"
    REM COMPOSER ""
    INDEX 01 00:00:00
  TRACK 02 AUDIO
    TITLE "Who's Gonna Love Me"
    PERFORMER "The Archies"
    REM COMPOSER ""
    INDEX 01 03:18:50
  TRACK 03 AUDIO
    TITLE "Mr. Factory"
    PERFORMER "The Archies"
    REM COMPOSER ""
    INDEX 01 05:09:14
  TRACK 04 AUDIO
    TITLE "Love And Rock 'N' Roll Music"
    PERFORMER "The Archies"
    REM COMPOSER ""
    INDEX 01 07:41:55
  TRACK 05 AUDIO
    TITLE "Over And Over"
    PERFORMER "The Archies"
    REM COMPOSER ""
    INDEX 01 10:00:40
  TRACK 06 AUDIO
    TITLE "Waldo P. Emerson Jones"
    PERFORMER "The Archies"
    REM COMPOSER ""
    INDEX 01 12:20:14
  TRACK 07 AUDIO
    TITLE "A Summer Prayer For Peace"
    PERFORMER "The Archies"
    REM COMPOSER ""
    INDEX 01 14:56:60
  TRACK 08 AUDIO
    TITLE "Dance"
    PERFORMER "The Archies"
    REM COMPOSER ""
    INDEX 01 17:45:57
  TRACK 09 AUDIO
    TITLE "Comes The Sun"
    PERFORMER "The Archies"
    REM COMPOSER ""
    INDEX 01 20:05:04
  TRACK 10 AUDIO
    TITLE "Suddenly Susan"
    PERFORMER "The Archies"
    REM COMPOSER ""
    INDEX 01 22:29:17
  TRACK 11 AUDIO
    TITLE "One Big Family"
    PERFORMER "The Archies"
    REM COMPOSER ""
    INDEX 01 24:46:31
  TRACK 12 AUDIO
    TITLE "It's The Summertime"
    PERFORMER "The Archies"
    REM COMPOSER ""
    INDEX 01 26:39:33
#77701. This Is Love [0:02:27.19]
02. Don't Need No Bad Girl [0:02:21.30]
03. Should Anybody Ask [0:02:01.48]
04. Easy Guy [0:02:37.21]
05. Maybe I'm Wrong [0:02:07.06]
06. What Goes On [0:03:53.64]
07. Carousel Man [0:02:20.61]
08. Hold On To Lovin' [0:02:30.39]
09. This Is The Night [0:03:05.28]
10. Little Green Jacket [0:02:47.29]
11. Together We Two [0:02:34.71]
12. Throw A Little Love My Way [0:02:31.73]
Код:
Exact Audio Copy V1.3 from 2. September 2016
EAC extraction logfile from 28. March 2020, 12:38
The Archies / This Is Love (Disc 5 Complete Album Collection)
Used drive  : PLEXTOR DVDR   PX-880SA   Adapter: 1  ID: 0
Read mode               : Secure
Utilize accurate stream : Yes
Defeat audio cache      : Yes
Make use of C2 pointers : No
Read offset correction                      : 6
Overread into Lead-In and Lead-Out          : No
Fill up missing offset samples with silence : Yes
Delete leading and trailing silent blocks   : No
Null samples used in CRC calculations       : Yes
Used interface                              : Native Win32 interface for Win NT & 2000
Used output format              : User Defined Encoder
Selected bitrate                : 1024 kBit/s
Quality                         : High
Add ID3 tag                     : No
Command line compressor         : C:\Program Files (x86)\Exact Audio Copy\wavpack.exe
Additional command line options : -lm %source%
TOC of the extracted CD
     Track |   Start  |  Length  | Start sector | End sector
    ---------------------------------------------------------
        1  |  0:00.00 |  2:27.19 |         0    |    11043
        2  |  2:27.19 |  2:21.30 |     11044    |    21648
        3  |  4:48.49 |  2:01.48 |     21649    |    30771
        4  |  6:50.22 |  2:37.21 |     30772    |    42567
        5  |  9:27.43 |  2:07.06 |     42568    |    52098
        6  | 11:34.49 |  3:53.64 |     52099    |    69637
        7  | 15:28.38 |  2:20.61 |     69638    |    80198
        8  | 17:49.24 |  2:30.39 |     80199    |    91487
        9  | 20:19.63 |  3:05.28 |     91488    |   105390
       10  | 23:25.16 |  2:47.29 |    105391    |   117944
       11  | 26:12.45 |  2:34.71 |    117945    |   129565
       12  | 28:47.41 |  2:31.73 |    129566    |   140963
Range status and errors
Selected range
     Filename D:\wwphil\The Archies - This Is Love (Disc 5 Complete Album Collection)\The Archies - This Is Love (Disc 5 Complete Album Collection).wav
     Peak level 100.0 %
     Extraction speed 3.8 X
     Range quality 100.0 %
     Test CRC 3EA17163
     Copy CRC 3EA17163
     Copy OK
No errors occurred
AccurateRip summary
Track  1  accurately ripped (confidence 5)  [7591860C]  (AR v2)
Track  2  accurately ripped (confidence 5)  [AF0CD4E2]  (AR v2)
Track  3  accurately ripped (confidence 5)  [EAEED026]  (AR v2)
Track  4  accurately ripped (confidence 5)  [8F33EB0F]  (AR v2)
Track  5  accurately ripped (confidence 5)  [9229BE75]  (AR v2)
Track  6  accurately ripped (confidence 5)  [BA4793C5]  (AR v2)
Track  7  accurately ripped (confidence 6)  [90F5E6A7]  (AR v2)
Track  8  accurately ripped (confidence 6)  [BF3C3517]  (AR v2)
Track  9  accurately ripped (confidence 6)  [32B967C7]  (AR v2)
Track 10  accurately ripped (confidence 6)  [18E9CEE8]  (AR v2)
Track 11  accurately ripped (confidence 6)  [5238691F]  (AR v2)
Track 12  accurately ripped (confidence 6)  [62067A42]  (AR v2)
All tracks accurately ripped
End of status report
==== Log checksum 209703B6D286DDDD157AFE82374219C0F3DC3486D9FB26EC7F5700E63CEEFB34 ====
Код:
REM GENRE "Pop Rock"
REM DATE 1971
REM DISCID 9607570C
REM COMMENT "ExactAudioCopy v1.3"
PERFORMER "The Archies"
TITLE "This Is Love (Disc 5 Complete Album Collection)"
REM COMPOSER ""
FILE "The Archies - This Is Love (Disc 5 Complete Album Collection).wv" WAVE
  TRACK 01 AUDIO
    TITLE "This Is Love"
    PERFORMER "The Archies"
    REM COMPOSER ""
    INDEX 01 00:00:00
  TRACK 02 AUDIO
    TITLE "Don't Need No Bad Girl"
    PERFORMER "The Archies"
    REM COMPOSER ""
    INDEX 01 02:27:19
  TRACK 03 AUDIO
    TITLE "Should Anybody Ask"
    PERFORMER "The Archies"
    REM COMPOSER ""
    INDEX 01 04:48:49
  TRACK 04 AUDIO
    TITLE "Easy Guy"
    PERFORMER "The Archies"
    REM COMPOSER ""
    INDEX 01 06:50:22
  TRACK 05 AUDIO
    TITLE "Maybe I'm Wrong"
    PERFORMER "The Archies"
    REM COMPOSER ""
    INDEX 01 09:27:43
  TRACK 06 AUDIO
    TITLE "What Goes On"
    PERFORMER "The Archies"
    REM COMPOSER ""
    INDEX 01 11:34:49
  TRACK 07 AUDIO
    TITLE "Carousel Man"
    PERFORMER "The Archies"
    REM COMPOSER ""
    INDEX 01 15:28:38
  TRACK 08 AUDIO
    TITLE "Hold On To Lovin'"
    PERFORMER "The Archies"
    REM COMPOSER ""
    INDEX 01 17:49:24
  TRACK 09 AUDIO
    TITLE "This Is The Night"
    PERFORMER "The Archies"
    REM COMPOSER ""
    INDEX 01 20:19:63
  TRACK 10 AUDIO
    TITLE "Little Green Jacket"
    PERFORMER "The Archies"
    REM COMPOSER ""
    INDEX 01 23:25:16
  TRACK 11 AUDIO
    TITLE "Together We Two"
    PERFORMER "The Archies"
    REM COMPOSER ""
    INDEX 01 26:12:45
  TRACK 12 AUDIO
    TITLE "Throw A Little Love My Way"
    PERFORMER "The Archies"
    REM COMPOSER ""
    INDEX 01 28:47:41
Доп. информация:
Official DR value: DR6, DR6, DR6, DR6, DR6
The Archies is an American fictional garage band founded by Archie Andrews, Reggie Mantle, Jughead Jones, Veronica Lodge, and Betty Cooper, a group of adolescent characters of the Archie universe, in the context of the animated TV series, The Archie Show. The group is also known for their real world success, through a virtual band.
Comic members: Archie Andrews (Guitar), Reggie Mantle (Guitar), Jughead Jones (Drums), Betty Cooper (Tambourine), Veronica Lodge (Keyboards). Real singer was Ron Dante.
The fictional band's music was recorded by session musicians, featuring Ron Dante on lead vocals and Toni Wine on duet and backing vocals, and released as a series of singles and albums. Their most successful song, "Sugar, Sugar", became one of the biggest hits of the bubblegum pop genre that flourished from 1968 to 1973.
Коробка со снимающейся крышкой, 5 cd collection of all The Archies studio albums in replica cardboard sleeves
https://www.discogs.com/The-Archies-Sugar-Sugar-The-Complete-Albums-Collection/release/13289862
Archie Andrews, Reggie Mantle, Jughead Jones, Veronica Lodge, and Betty Cooper
Ron Dante, Toni Wine
Правила, инструкции, FAQ!!!
Торрент  Добавлен [28 апр 2020, 19:49] Скачать торрент Магнет ссылка
Скачать торрент
[ Размер 15.33 КБ / Просмотров 0 ]

Статус
Проверен 
 
Размер  1.1 ГБ
Приватный: Нет (DHT включён)
.torrent скачан  0
 


     Отправить личное сообщение
   
Страница 1 из 1
Показать сообщения за:  Поле сортировки  
Начать новую тему Ответить на тему


Сейчас этот форум просматривают: нет зарегистрированных пользователей и гости: 0


Вы не можете начинать темы
Вы не можете отвечать на сообщения
Вы не можете редактировать свои сообщения
Вы не можете удалять свои сообщения
Вы не можете добавлять вложения

Перейти:  
cron