Начать новую тему Ответить на тему
Статистика раздачи
Размер: 545.58 МБ | Добавлен: 28 апр 2020, 19:53 | Скачали: 0
Сидеров: 1  [0 байт/сек]    Личеров: 0  [0 байт/сек]
Пред. тема | След. тема 

Автор
Сообщение

СообщениеДобавлено: 28 апр 2020, 19:53 

Ответить с цитатой 

Bryan Ferry - Boys And Girls (Original & Remastered Editions)


Жанр: Pop Rock | Страна исполнителя: UK | Аудио кодек: FLAC | Тип рипа: image+.cue | Битрейт аудио: lossless | Источник: dafnaplus | Наличие сканов: да


Продолжительность: 38:26
Трэклист:
01. Sensation 5:04
02. Slave To Love 4:27
03. Don't Stop The Dance 4:20
04. A Waste Land 1:02
05. Windswept 4:32
06. The Chosen One 4:52
07. Valentine 3:47
08. Stone Woman 5:13
09. Boys And Girls 5:09
Код:
Exact Audio Copy V1.3 from 2. September 2016
EAC extraction logfile from 21. August 2019, 12:47
Bryan Ferry / Boys and Girls (9 25082-2)
Used drive  : ASUS    DRW-24D5MT   Adapter: 1  ID: 0
Read mode               : Secure
Utilize accurate stream : Yes
Defeat audio cache      : Yes
Make use of C2 pointers : No
Read offset correction                      : 6
Overread into Lead-In and Lead-Out          : No
Fill up missing offset samples with silence : Yes
Delete leading and trailing silent blocks   : No
Null samples used in CRC calculations       : Yes
Used interface                              : Native Win32 interface for Win NT & 2000
Used output format              : User Defined Encoder
Selected bitrate                : 768 kBit/s
Quality                         : High
Add ID3 tag                     : No
Command line compressor         : C:\Program Files (x86)\Exact Audio Copy\Flac\flac.exe
Additional command line options : -V -8 -T "Genre=%genre%" -T "Artist=%artist%" -T "Title=%title%" -T "Album=%albumtitle%" -T "Date=%year%" -T "Tracknumber=%tracknr%" -T "Comment=%comment%" %source%
TOC of the extracted CD
     Track |   Start  |  Length  | Start sector | End sector
    ---------------------------------------------------------
        1  |  0:00.33 |  5:04.25 |        33    |    22857
        2  |  5:04.58 |  4:26.62 |     22858    |    42869
        3  |  9:31.45 |  4:19.43 |     42870    |    62337
        4  | 13:51.13 |  1:02.12 |     62338    |    66999
        5  | 14:53.25 |  4:32.15 |     67000    |    87414
        6  | 19:25.40 |  4:51.55 |     87415    |   109294
        7  | 24:17.20 |  3:46.48 |    109295    |   126292
        8  | 28:03.68 |  5:13.10 |    126293    |   149777
        9  | 33:17.03 |  5:09.17 |    149778    |   172969
Range status and errors
Selected range
     Filename I:\dafnaplus\Bryan Ferry - Boys And Girls\Bryan Ferry - Boys and Girls (9 25082-2).wav
     Peak level 100.0 %
     Extraction speed 1.6 X
     Range quality 100.0 %
     Test CRC 9E7909F9
     Copy CRC 9E7909F9
     Copy OK
No errors occurred
AccurateRip summary
Track  1  accurately ripped (confidence 23)  [06E210BC]  (AR v2)
Track  2  accurately ripped (confidence 24)  [A51800EB]  (AR v2)
Track  3  accurately ripped (confidence 24)  [E69DB804]  (AR v2)
Track  4  accurately ripped (confidence 23)  [B90DA107]  (AR v2)
Track  5  accurately ripped (confidence 23)  [C18C6C2C]  (AR v2)
Track  6  accurately ripped (confidence 23)  [06BCD995]  (AR v2)
Track  7  accurately ripped (confidence 23)  [9F90E509]  (AR v2)
Track  8  accurately ripped (confidence 23)  [9E1346A2]  (AR v2)
Track  9  accurately ripped (confidence 23)  [7E901087]  (AR v2)
All tracks accurately ripped
End of status report
---- CUETools DB Plugin V2.1.6
[CTDB TOCID: rc0EP19YrSruThrqHUJ_zgK9z2Q-] found
Submit result: rc0EP19YrSruThrqHUJ_zgK9z2Q- has been confirmed
Track | CTDB Status
  1   | (89/95) Accurately ripped, or (1/95) differs in 108 samples @01:09:30-01:09:31
  2   | (92/95) Accurately ripped
  3   | (90/95) Accurately ripped
  4   | (93/95) Accurately ripped
  5   | (90/95) Accurately ripped, or (1/95) differs in 739 samples @03:24:18-03:24:19
  6   | (88/95) Accurately ripped, or (1/95) differs in 107 samples @04:22:33-04:22:34
  7   | (93/95) Accurately ripped
  8   | (93/95) Accurately ripped
  9   | (94/95) Accurately ripped
==== Log checksum 0592F6C153852E90E1974E6C763FD36F58B5FB18BE2D327D485778ACB4463C60 ====
Код:
REM GENRE Rock
REM DATE 1985
REM DISCID 90090209
REM COMMENT "ExactAudioCopy v1.3"
PERFORMER "Bryan Ferry"
TITLE "Boys and Girls (9 25082-2)"
REM COMPOSER ""
FILE "Bryan Ferry - Boys and Girls (9 25082-2).flac" WAVE
  TRACK 01 AUDIO
    TITLE "Sensation"
    PERFORMER "Bryan Ferry"
    REM COMPOSER ""
    INDEX 00 00:00:00
    INDEX 01 00:00:33
  TRACK 02 AUDIO
    TITLE "Slave To Love"
    PERFORMER "Bryan Ferry"
    REM COMPOSER ""
    INDEX 00 05:04:50
    INDEX 01 05:04:58
  TRACK 03 AUDIO
    TITLE "Don't Stop The Dance"
    PERFORMER "Bryan Ferry"
    REM COMPOSER ""
    INDEX 00 09:30:25
    INDEX 01 09:31:45
  TRACK 04 AUDIO
    TITLE "A Waste Land"
    PERFORMER "Bryan Ferry"
    REM COMPOSER ""
    INDEX 00 13:51:10
    INDEX 01 13:51:13
  TRACK 05 AUDIO
    TITLE "Windswept"
    PERFORMER "Bryan Ferry"
    REM COMPOSER ""
    INDEX 01 14:53:25
  TRACK 06 AUDIO
    TITLE "The Chosen One"
    PERFORMER "Bryan Ferry"
    REM COMPOSER ""
    INDEX 00 19:23:50
    INDEX 01 19:25:40
  TRACK 07 AUDIO
    TITLE "Valentine"
    PERFORMER "Bryan Ferry"
    REM COMPOSER ""
    INDEX 00 24:17:18
    INDEX 01 24:17:20
  TRACK 08 AUDIO
    TITLE "Stone Woman"
    PERFORMER "Bryan Ferry"
    REM COMPOSER ""
    INDEX 00 28:03:38
    INDEX 01 28:03:68
  TRACK 09 AUDIO
    TITLE "Boys And Girls"
    PERFORMER "Bryan Ferry"
    REM COMPOSER ""
    INDEX 01 33:17:03
Код:
foobar2000 1.3.16 / Dynamic Range Meter 1.1.1
log date: 2019-08-23 18:22:07
--------------------------------------------------------------------------------
Analyzed: Bryan Ferry / Boys and Girls (9 25082-2)
--------------------------------------------------------------------------------
DR         Peak         RMS     Duration Track
--------------------------------------------------------------------------------
DR15       0.00 dB   -17.47 dB      5:04 01-Sensation
DR14      -2.63 dB   -18.96 dB      4:27 02-Slave To Love
DR15      -1.89 dB   -18.14 dB      4:20 03-Don't Stop The Dance
DR11      -5.86 dB   -22.92 dB      1:02 04-A Waste Land
DR14      -2.20 dB   -18.58 dB      4:32 05-Windswept
DR15      -2.28 dB   -19.17 dB      4:52 06-The Chosen One
DR14       0.00 dB   -16.15 dB      3:47 07-Valentine
DR13      -4.04 dB   -19.45 dB      5:13 08-Stone Woman
DR14      -3.88 dB   -20.82 dB      5:09 09-Boys And Girls
--------------------------------------------------------------------------------
Number of tracks:  9
Official DR value: DR14
Samplerate:        44100 Hz
Channels:          2
Bits per sample:   16
Bitrate:           800 kbps
Codec:             FLAC
================================================================================


Продолжительность: 38:29
Трэклист:
01. Sensation 5:07
02. Slave To Love 4:26
03. Don't Stop The Dance 4:19
04. A Waste Land 1:01
05. Windswept 4:33
06. The Chosen One 4:52
07. Valentine 3:48
08. Stone Woman 4:57
09. Boys And Girls 5:26
Код:
Exact Audio Copy V1.3 from 2. September 2016
EAC extraction logfile from 1. April 2020, 15:34
Bryan Ferry / Boys And Girls (7243 8 47722 22)
Used drive  : ASUS    DRW-24D5MT   Adapter: 1  ID: 0
Read mode               : Secure
Utilize accurate stream : Yes
Defeat audio cache      : Yes
Make use of C2 pointers : No
Read offset correction                      : 6
Overread into Lead-In and Lead-Out          : No
Fill up missing offset samples with silence : Yes
Delete leading and trailing silent blocks   : No
Null samples used in CRC calculations       : Yes
Used interface                              : Native Win32 interface for Win NT & 2000
Used output format              : User Defined Encoder
Selected bitrate                : 768 kBit/s
Quality                         : High
Add ID3 tag                     : No
Command line compressor         : C:\Program Files (x86)\Exact Audio Copy\Flac\flac.exe
Additional command line options : -V -8 -T "Genre=%genre%" -T "Artist=%artist%" -T "Title=%title%" -T "Album=%albumtitle%" -T "Date=%year%" -T "Tracknumber=%tracknr%" -T "Comment=%comment%" %source%
TOC of the extracted CD
     Track |   Start  |  Length  | Start sector | End sector
    ---------------------------------------------------------
        1  |  0:00.00 |  5:07.10 |         0    |    23034
        2  |  5:07.10 |  4:26.25 |     23035    |    43009
        3  |  9:33.35 |  4:19.27 |     43010    |    62461
        4  | 13:52.62 |  1:00.58 |     62462    |    67019
        5  | 14:53.45 |  4:33.35 |     67020    |    87529
        6  | 19:27.05 |  4:51.40 |     87530    |   109394
        7  | 24:18.45 |  3:47.67 |    109395    |   126486
        8  | 28:06.37 |  4:56.55 |    126487    |   148741
        9  | 33:03.17 |  5:25.60 |    148742    |   173176
Range status and errors
Selected range
     Filename I:\dafnaplus\Boys And Girls (7243 8 47722 22)\Bryan Ferry - Boys And Girls (7243 8 47722 22).wav
     Peak level 99.3 %
     Extraction speed 6.4 X
     Range quality 100.0 %
     Test CRC 48E95232
     Copy CRC 48E95232
     Copy OK
No errors occurred
AccurateRip summary
Track  1  accurately ripped (confidence 32)  [453B3B2E]  (AR v2)
Track  2  accurately ripped (confidence 32)  [708C0202]  (AR v2)
Track  3  accurately ripped (confidence 32)  [2A2EE9E8]  (AR v2)
Track  4  accurately ripped (confidence 32)  [BA8E637F]  (AR v2)
Track  5  accurately ripped (confidence 32)  [2C7AB8C9]  (AR v2)
Track  6  accurately ripped (confidence 32)  [8DC57C83]  (AR v2)
Track  7  accurately ripped (confidence 31)  [8074F417]  (AR v2)
Track  8  accurately ripped (confidence 32)  [2DD89D4B]  (AR v2)
Track  9  accurately ripped (confidence 31)  [5D9B7064]  (AR v2)
All tracks accurately ripped
End of status report
---- CUETools DB Plugin V2.1.6
[CTDB TOCID: faI.ehbKCDp3RRTQtUmrDD2HMts-] found
Submit result: faI.ehbKCDp3RRTQtUmrDD2HMts- has been confirmed
Track | CTDB Status
  1   | (295/302) Accurately ripped, or (2/302) differs in 3 samples @04:03:60,04:07:66, or (3/302) differs in 63 samples @02:58:46
  2   | (301/302) Accurately ripped
  3   | (298/302) Accurately ripped
  4   | (301/302) Accurately ripped
  5   | (300/302) Accurately ripped
  6   | (300/302) Accurately ripped
  7   | (301/302) Accurately ripped
  8   | (298/302) Accurately ripped, or (3/302) differs in 36 samples @02:16:38
  9   | (299/302) Accurately ripped
==== Log checksum 5C42802900A9576F8313AF79B3F7842CC5DA5C9230909E92D817DB53BAD0E666 ====
Код:
REM GENRE "Pop Rock"
REM DATE 1999
REM DISCID 8E090509
REM COMMENT "ExactAudioCopy v1.3"
PERFORMER "Bryan Ferry"
TITLE "Boys And Girls (7243 8 47722 22)"
REM COMPOSER ""
FILE "Bryan Ferry - Boys And Girls (7243 8 47722 22).flac" WAVE
  TRACK 01 AUDIO
    TITLE "Sensation"
    PERFORMER "Bryan Ferry"
    REM COMPOSER ""
    INDEX 01 00:00:00
  TRACK 02 AUDIO
    TITLE "Slave To Love"
    PERFORMER "Bryan Ferry"
    REM COMPOSER ""
    INDEX 01 05:07:10
  TRACK 03 AUDIO
    TITLE "Don't Stop The Dance"
    PERFORMER "Bryan Ferry"
    REM COMPOSER ""
    INDEX 00 09:32:62
    INDEX 01 09:33:35
  TRACK 04 AUDIO
    TITLE "A Waste Land"
    PERFORMER "Bryan Ferry"
    REM COMPOSER ""
    INDEX 01 13:52:62
  TRACK 05 AUDIO
    TITLE "Windswept"
    PERFORMER "Bryan Ferry"
    REM COMPOSER ""
    INDEX 01 14:53:45
  TRACK 06 AUDIO
    TITLE "The Chosen One"
    PERFORMER "Bryan Ferry"
    REM COMPOSER ""
    INDEX 00 19:26:25
    INDEX 01 19:27:05
  TRACK 07 AUDIO
    TITLE "Valentine"
    PERFORMER "Bryan Ferry"
    REM COMPOSER ""
    INDEX 01 24:18:45
  TRACK 08 AUDIO
    TITLE "Stone Woman"
    PERFORMER "Bryan Ferry"
    REM COMPOSER ""
    INDEX 00 28:06:15
    INDEX 01 28:06:37
  TRACK 09 AUDIO
    TITLE "Boys And Girls"
    PERFORMER "Bryan Ferry"
    REM COMPOSER ""
    INDEX 01 33:03:17
Код:
foobar2000 1.3.16 / Dynamic Range Meter 1.1.1
log date: 2020-04-01 15:37:35
--------------------------------------------------------------------------------
Analyzed: Bryan Ferry / Boys And Girls (7243 8 47722 22)
--------------------------------------------------------------------------------
DR         Peak         RMS     Duration Track
--------------------------------------------------------------------------------
DR9       -0.21 dB   -10.95 dB      5:07 01-Sensation
DR8       -0.21 dB   -10.00 dB      4:26 02-Slave To Love
DR9       -0.24 dB    -9.90 dB      4:19 03-Don't Stop The Dance
DR11      -1.33 dB   -17.48 dB      1:01 04-A Waste Land
DR8       -0.24 dB   -10.39 dB      4:33 05-Windswept
DR8       -0.21 dB    -9.87 dB      4:52 06-The Chosen One
DR9       -0.05 dB   -10.38 dB      3:48 07-Valentine
DR9       -0.84 dB   -10.65 dB      4:57 08-Stone Woman
DR9       -0.84 dB   -12.23 dB      5:26 09-Boys And Girls
--------------------------------------------------------------------------------
Number of tracks:  9
Official DR value: DR9
Samplerate:        44100 Hz
Channels:          2
Bits per sample:   16
Bitrate:           911 kbps
Codec:             FLAC
================================================================================

Правила, инструкции, FAQ!!!
Торрент  Добавлен [28 апр 2020, 19:53] Скачать торрент Магнет ссылка
Скачать торрент
[ Размер 13.43 КБ / Просмотров 3 ]

Статус
Проверен 
 
Размер  545.58 МБ
Приватный: Нет (DHT включён)
.torrent скачан  0
 


     Отправить личное сообщение
   
Страница 1 из 1
Показать сообщения за:  Поле сортировки  
Начать новую тему Ответить на тему


Сейчас этот форум просматривают: нет зарегистрированных пользователей и гости: 0


Вы не можете начинать темы
Вы не можете отвечать на сообщения
Вы не можете редактировать свои сообщения
Вы не можете удалять свои сообщения
Вы не можете добавлять вложения

Перейти:  
cron