Начать новую тему Ответить на тему
Статистика раздачи
Размер: 289.01 МБ | Добавлен: 26 мар 2019, 19:50 | Скачали: 2
Сидеров: 1  [0 байт/сек]    Личеров: 1  [0 байт/сек]
Пред. тема | След. тема 

Автор
Сообщение

СообщениеДобавлено: 26 мар 2019, 19:50 

Ответить с цитатой 

The Foundations / Greatest Hits
Жанр: Pop-Rock, Brit Pop
Страна-производитель диска: UK
Год издания: 1996
Издатель (лейбл): Tring International PLC
Номер по каталогу: GRF 176
Страна: UK
Аудиокодек: FLAC (*.flac)
Тип рипа: image+.cue
Битрейт аудио: lossless
Продолжительность: 0:45:42
Источник (релизер): clustert
Наличие сканов в содержимом раздачи: да
Треклист:
01. Build Me Up Buttercup [0:03:06.40]
02. The Bad Bad Old Days [0:03:11.53]
03. Baby Now That I've Found You [0:03:02.12]
04. Back On My Feet Again [0:02:50.58]
05. Lonely And Sad [0:03:02.45]
06. Born To Live & Born To Die [0:03:01.10]
07. You Can't Fool Me [0:03:03.47]
08. Knock On Wood [0:03:12.63]
09. No-One Loves Me Like You Do [0:03:17.15]
10. New Directions [0:02:57.57]
11. Together [0:03:42.45]
12. Love You Now [0:02:58.53]
13. Sitting On The Dock Of The Bay [0:04:00.50]
14. Loving You [0:04:14.10]
Код:
Exact Audio Copy V1.0 beta 3 from 29. August 2011
Отчёт EAC об извлечении, выполненном 8. июня 2014, 15:02
The Foundations  / Greatest Hits
Дисковод: ASUS    DVD-E616A3T   Adapter: 5  ID: 0
Режим чтения                 : Достоверность
Использование точного потока : Да
Отключение кэша аудио        : Да
Использование указателей C2  : Нет
Коррекция смещения при чтении                     : 6
Способность читать области Lead-in и Lead-out     : Нет
Заполнение пропущенных сэмплов тишиной            : Да
Удаление блоков с тишиной в начале и конце        : Нет
При вычислениях CRC использовались нулевые сэмплы : Да
Интерфейс                                         : Встроенный Win32-интерфейс для Win NT/2000
Выходной формат          : Пользовательский кодировщик
Выбранный битрейт        : 128 kBit/s
Качество                 : Высокий
Добавление ID3-тега      : Нет
Утилита сжатия           : C:\Program Files\Exact Audio Copy\Flac\flac.exe
Дополнительные параметры :  -V -8 -T "Genre=%genre%" -T "Artist=%artist%" -T "Title=%title%" -T "Album=%albumtitle%" -T "Date=%year%" -T "Tracknumber=%tracknr%" -T "Comment=EAC1.0b2 FLAC -8" %source%
TOC извлечённого CD
     Трек |   Старт  | Длительность | Начальный сектор | Конечный сектор
    ---------------------------------------------------------------------
       1  |  0:00.00 |    3:06.40   |           0      |      13989
       2  |  3:06.40 |    3:11.53   |       13990      |      28367
       3  |  6:18.18 |    3:02.12   |       28368      |      42029
       4  |  9:20.30 |    2:50.58   |       42030      |      54837
       5  | 12:11.13 |    3:02.45   |       54838      |      68532
       6  | 15:13.58 |    3:01.10   |       68533      |      82117
       7  | 18:14.68 |    3:03.47   |       82118      |      95889
       8  | 21:18.40 |    3:12.63   |       95890      |     110352
       9  | 24:31.28 |    3:17.15   |      110353      |     125142
      10  | 27:48.43 |    2:57.57   |      125143      |     138474
      11  | 30:46.25 |    3:42.45   |      138475      |     155169
      12  | 34:28.70 |    2:58.53   |      155170      |     168572
      13  | 37:27.48 |    4:00.50   |      168573      |     186622
      14  | 41:28.23 |    4:14.10   |      186623      |     205682
Характеристики диапазона извлечения и сообщения об ошибках
Выбранный диапазон
     Имя файла R:\Раздача 17\The Foundations - 1996 - Greatest Hits\The Foundations  - Greatest Hits.wav
     Пиковый уровень 98.9 %
     Скорость извлечения 2.6 X
     Качество диапазона 100.0 %
     CRC теста 130BB92D
     CRC копии 130BB92D
     Копирование... OK
Ошибок не произошло
AccurateRip: сводка
Трек  1  отсутствует в базе данных
Трек  2  отсутствует в базе данных
Трек  3  отсутствует в базе данных
Трек  4  отсутствует в базе данных
Трек  5  отсутствует в базе данных
Трек  6  отсутствует в базе данных
Трек  7  отсутствует в базе данных
Трек  8  отсутствует в базе данных
Трек  9  отсутствует в базе данных
Трек 10  отсутствует в базе данных
Трек 11  отсутствует в базе данных
Трек 12  отсутствует в базе данных
Трек 13  отсутствует в базе данных
Трек 14  отсутствует в базе данных
Ни одного трека нет в базе AccurateRip
Конец отчёта
==== Контрольная сумма отчёта B60221E2541547BFE3B5040080C3C4C229A87127DF7518554ADAB876095C3DF1 ====
Drums – Andy Bennett
Guitar – Alan Warner
Keyboards – Vince Cross
Lead Vocals – Clem Curtis
Правила, инструкции, FAQ!!!
Торрент  Добавлен [26 мар 2019, 19:50] Скачать торрент Магнет ссылка
Скачать торрент
[ Размер 12.19 КБ / Просмотров 10 ]

Статус
Проверен 
 
Размер  289.01 МБ
Приватный: Нет (DHT включён)
.torrent скачан  2
 


     Отправить личное сообщение
   
Страница 1 из 1
Показать сообщения за:  Поле сортировки  
Начать новую тему Ответить на тему


Сейчас этот форум просматривают: нет зарегистрированных пользователей и гости: 0


Вы не можете начинать темы
Вы не можете отвечать на сообщения
Вы не можете редактировать свои сообщения
Вы не можете удалять свои сообщения
Вы не можете добавлять вложения

Перейти:  
cron