Начать новую тему Ответить на тему
Статистика раздачи
Размер: 310.21 МБ | Добавлен: 26 мар 2019, 19:12 | Скачали: 0
Сидеров: 0  [0 байт/сек]    Личеров: 0  [0 байт/сек]
Пред. тема | След. тема 

Автор
Сообщение

СообщениеДобавлено: 26 мар 2019, 19:12 

Ответить с цитатой 

Out Of My Hair / Drop The Roof
Жанр: Pop Rock, Brit Pop
Страна-производитель диска: EU
Год издания: 1996
Издатель (лейбл): BMG Records
Номер по каталогу: 74321348372
Страна: UK
Аудиокодек: FLAC (*.flac)
Тип рипа: tracks+.cue
Битрейт аудио: lossless
Продолжительность: 0:49:28
Источник (релизер): clustert
Наличие сканов в содержимом раздачи: да
Треклист:
01. In The Groove Again [0:03:38.57]
02. Safe Boy [0:03:50.10]
03. Wide Together [0:03:30.00]
04. Drop The Roof [0:02:40.73]
05. I'd Rather Be [0:03:03.02]
06. Why It Doesn't Snow [0:01:39.60]
07. Mary [0:05:29.10]
08. Circle's Social Please Me's [0:03:26.68]
09. Theives In The Fanclub [0:04:28.30]
10. That's All [0:04:36.10]
11. Mr Jones [0:03:21.47]
12. Wendy [0:04:27.00]
13. Judas Flip [0:05:17.00]
Код:
Exact Audio Copy V1.0 beta 3 from 29. August 2011
Отчёт EAC об извлечении, выполненном 8. июня 2014, 0:37
Out Of My Hair / Drop The Roof
Дисковод: ASUS    DRW-1814BLT   Adapter: 4  ID: 0
Режим чтения                 : Достоверность
Использование точного потока : Да
Отключение кэша аудио        : Да
Использование указателей C2  : Нет
Коррекция смещения при чтении                     : 6
Способность читать области Lead-in и Lead-out     : Нет
Заполнение пропущенных сэмплов тишиной            : Да
Удаление блоков с тишиной в начале и конце        : Нет
При вычислениях CRC использовались нулевые сэмплы : Да
Интерфейс                                         : Встроенный Win32-интерфейс для Win NT/2000
Обработка зазоров                                 : Добавлено к предыдущему треку
Выходной формат          : Пользовательский кодировщик
Выбранный битрейт        : 128 kBit/s
Качество                 : Высокий
Добавление ID3-тега      : Нет
Утилита сжатия           : C:\Program Files\Exact Audio Copy\Flac\flac.exe
Дополнительные параметры :  -V -8 -T "Genre=%genre%" -T "Artist=%artist%" -T "Title=%title%" -T "Album=%albumtitle%" -T "Date=%year%" -T "Tracknumber=%tracknr%" -T "Comment=EAC1.0b2 FLAC -8" %source%
TOC извлечённого CD
     Трек |   Старт  | Длительность | Начальный сектор | Конечный сектор
    ---------------------------------------------------------------------
       1  |  0:00.00 |    3:38.57   |           0      |      16406
       2  |  3:38.57 |    3:50.10   |       16407      |      33666
       3  |  7:28.67 |    3:30.00   |       33667      |      49416
       4  | 10:58.67 |    2:40.73   |       49417      |      61489
       5  | 13:39.65 |    3:03.02   |       61490      |      75216
       6  | 16:42.67 |    1:39.60   |       75217      |      82701
       7  | 18:22.52 |    5:29.10   |       82702      |     107386
       8  | 23:51.62 |    3:26.68   |      107387      |     122904
       9  | 27:18.55 |    4:28.30   |      122905      |     143034
      10  | 31:47.10 |    4:36.10   |      143035      |     163744
      11  | 36:23.20 |    3:21.47   |      163745      |     178866
      12  | 39:44.67 |    4:27.00   |      178867      |     198891
      13  | 44:11.67 |    5:17.00   |      198892      |     222666
Трек  1
     Имя файла R:\Раздача 17\Out Of My Hair - 1996 - Drop The Roof\01 In The Groove Again.wav
     Длина предзазора  0:00:02.00
     Пиковый уровень 98.8 %
     Скорость извлечения 4.4 X
     Качество трека 99.9 %
     CRC теста 9831BFF0
     CRC копии 9831BFF0
     Копирование... OK
Трек  2
     Имя файла R:\Раздача 17\Out Of My Hair - 1996 - Drop The Roof\02 Safe Boy.wav
     Длина предзазора  0:00:02.20
     Пиковый уровень 95.5 %
     Скорость извлечения 5.5 X
     Качество трека 100.0 %
     CRC теста 5B7C68D2
     CRC копии 5B7C68D2
     Копирование... OK
Трек  3
     Имя файла R:\Раздача 17\Out Of My Hair - 1996 - Drop The Roof\03 Wide Together.wav
     Пиковый уровень 100.0 %
     Скорость извлечения 5.9 X
     Качество трека 100.0 %
     CRC теста 08E1204A
     CRC копии 08E1204A
     Копирование... OK
Трек  4
     Имя файла R:\Раздача 17\Out Of My Hair - 1996 - Drop The Roof\04 Drop The Roof.wav
     Пиковый уровень 98.8 %
     Скорость извлечения 5.0 X
     Качество трека 99.9 %
     CRC теста DA578EAD
     CRC копии DA578EAD
     Копирование... OK
Трек  5
     Имя файла R:\Раздача 17\Out Of My Hair - 1996 - Drop The Roof\05 I'd Rather Be.wav
     Длина предзазора  0:00:03.08
     Пиковый уровень 95.5 %
     Скорость извлечения 6.4 X
     Качество трека 100.0 %
     CRC теста C8F9CE4D
     CRC копии C8F9CE4D
     Копирование... OK
Трек  6
     Имя файла R:\Раздача 17\Out Of My Hair - 1996 - Drop The Roof\06 Why It Doesn't Snow.wav
     Пиковый уровень 67.6 %
     Скорость извлечения 5.8 X
     Качество трека 100.0 %
     CRC теста 879521FB
     CRC копии 879521FB
     Копирование... OK
Трек  7
     Имя файла R:\Раздача 17\Out Of My Hair - 1996 - Drop The Roof\07 Mary.wav
     Пиковый уровень 98.8 %
     Скорость извлечения 7.6 X
     Качество трека 100.0 %
     CRC теста FD85FE01
     CRC копии FD85FE01
     Копирование... OK
Трек  8
     Имя файла R:\Раздача 17\Out Of My Hair - 1996 - Drop The Roof\08 Circle's Social Please Me's.wav
     Длина предзазора  0:00:02.35
     Пиковый уровень 97.7 %
     Скорость извлечения 7.5 X
     Качество трека 100.0 %
     CRC теста C18CB2EF
     CRC копии C18CB2EF
     Копирование... OK
Трек  9
     Имя файла R:\Раздача 17\Out Of My Hair - 1996 - Drop The Roof\09 Theives In The Fanclub.wav
     Длина предзазора  0:00:01.60
     Пиковый уровень 98.8 %
     Скорость извлечения 8.1 X
     Качество трека 100.0 %
     CRC теста 36FBF449
     CRC копии 36FBF449
     Копирование... OK
Трек 10
     Имя файла R:\Раздача 17\Out Of My Hair - 1996 - Drop The Roof\10 That's All.wav
     Пиковый уровень 97.7 %
     Скорость извлечения 8.5 X
     Качество трека 100.0 %
     CRC теста 4841E3BD
     CRC копии 4841E3BD
     Копирование... OK
Трек 11
     Имя файла R:\Раздача 17\Out Of My Hair - 1996 - Drop The Roof\11 Mr Jones.wav
     Длина предзазора  0:00:04.23
     Пиковый уровень 95.5 %
     Скорость извлечения 8.4 X
     Качество трека 100.0 %
     CRC теста E18F8341
     CRC копии E18F8341
     Копирование... OK
Трек 12
     Имя файла R:\Раздача 17\Out Of My Hair - 1996 - Drop The Roof\12 Wendy.wav
     Длина предзазора  0:00:01.50
     Пиковый уровень 95.5 %
     Скорость извлечения 9.1 X
     Качество трека 100.0 %
     CRC теста 1FCD2B95
     CRC копии 1FCD2B95
     Копирование... OK
Трек 13
     Имя файла R:\Раздача 17\Out Of My Hair - 1996 - Drop The Roof\13 Judas Flip.wav
     Длина предзазора  0:00:02.25
     Пиковый уровень 95.5 %
     Скорость извлечения 9.6 X
     Качество трека 100.0 %
     CRC теста 9E6FD82C
     CRC копии 9E6FD82C
     Копирование... OK
Ошибок не произошло
Конец отчёта
==== Контрольная сумма отчёта F9BF16930ABC0AAC50313975AE1C8C744B1C8297357B525404EBE36E7F190ECA ====
Код:
REM DATE 1996
REM DISCID 8D0B980D
REM COMMENT "ExactAudioCopy v1.0b3"
PERFORMER "Out Of My Hair"
TITLE "Drop The Roof"
FILE "01 In The Groove Again.wav" WAVE
  TRACK 01 AUDIO
    TITLE "In The Groove Again"
    PERFORMER "Out Of My Hair"
    ISRC 71@d79500091
    INDEX 01 00:00:00
  TRACK 02 AUDIO
    TITLE "Safe Boy"
    PERFORMER "Out Of My Hair"
    ISRC 71@d79500099
    INDEX 00 03:36:37
FILE "02 Safe Boy.wav" WAVE
    INDEX 01 00:00:00
FILE "03 Wide Together.wav" WAVE
  TRACK 03 AUDIO
    TITLE "Wide Together"
    PERFORMER "Out Of My Hair"
    ISRC 71@d79500097
    INDEX 01 00:00:00
FILE "04 Drop The Roof.wav" WAVE
  TRACK 04 AUDIO
    TITLE "Drop The Roof"
    PERFORMER "Out Of My Hair"
    ISRC 71@d79500093
    INDEX 01 00:00:00
  TRACK 05 AUDIO
    TITLE "I'd Rather Be"
    PERFORMER "Out Of My Hair"
    ISRC 71@d79500013
    INDEX 00 02:37:65
FILE "05 I'd Rather Be.wav" WAVE
    INDEX 01 00:00:00
FILE "06 Why It Doesn't Snow.wav" WAVE
  TRACK 06 AUDIO
    TITLE "Why It Doesn't Snow"
    PERFORMER "Out Of My Hair"
    ISRC 71@d79500098
    INDEX 01 00:00:00
FILE "07 Mary.wav" WAVE
  TRACK 07 AUDIO
    TITLE "Mary"
    PERFORMER "Out Of My Hair"
    ISRC 71@d79500096
    INDEX 01 00:00:00
  TRACK 08 AUDIO
    TITLE "Circle's Social Please Me's"
    PERFORMER "Out Of My Hair"
    ISRC 71@d79600001
    INDEX 00 05:26:50
FILE "08 Circle's Social Please Me's.wav" WAVE
    INDEX 01 00:00:00
  TRACK 09 AUDIO
    TITLE "Theives In The Fanclub"
    PERFORMER "Out Of My Hair"
    ISRC 71@d79500095
    INDEX 00 03:25:08
FILE "09 Theives In The Fanclub.wav" WAVE
    INDEX 01 00:00:00
FILE "10 That's All.wav" WAVE
  TRACK 10 AUDIO
    TITLE "That's All"
    PERFORMER "Out Of My Hair"
    ISRC 71@d79500095
    INDEX 01 00:00:00
  TRACK 11 AUDIO
    TITLE "Mr Jones"
    PERFORMER "Out Of My Hair"
    ISRC 71@d79500012
    INDEX 00 04:31:62
FILE "11 Mr Jones.wav" WAVE
    INDEX 01 00:00:00
  TRACK 12 AUDIO
    TITLE "Wendy"
    PERFORMER "Out Of My Hair"
    ISRC 71@d79500100
    INDEX 00 03:19:72
FILE "12 Wendy.wav" WAVE
    INDEX 01 00:00:00
  TRACK 13 AUDIO
    TITLE "Judas Flip"
    PERFORMER "Out Of My Hair"
    ISRC 71@d79500092
    INDEX 00 04:24:50
FILE "13 Judas Flip.wav" WAVE
    INDEX 01 00:00:00
Правила, инструкции, FAQ!!!
Торрент  Добавлен [26 мар 2019, 19:12] Скачать торрент Магнет ссылка
Скачать торрент
[ Размер 13.99 КБ / Просмотров 0 ]

Статус
Проверен 
 
Размер  310.21 МБ
Приватный: Нет (DHT включён)
.torrent скачан  0
 


     Отправить личное сообщение
   
Страница 1 из 1
Показать сообщения за:  Поле сортировки  
Начать новую тему Ответить на тему


Сейчас этот форум просматривают: нет зарегистрированных пользователей и гости: 0


Вы не можете начинать темы
Вы не можете отвечать на сообщения
Вы не можете редактировать свои сообщения
Вы не можете удалять свои сообщения
Вы не можете добавлять вложения

Перейти:  
cron