Начать новую тему Ответить на тему
Статистика раздачи
Размер: 358.05 МБ | Добавлен: 26 мар 2019, 20:42 | Скачали: 0
Сидеров: 1  [0 байт/сек]    Личеров: 0  [0 байт/сек]
Пред. тема | След. тема 

Автор
Сообщение

СообщениеДобавлено: 26 мар 2019, 20:42 

Ответить с цитатой 

Ocean Colour Scene / Saturday
Жанр: Pop-Rock / Brit-Pop
Страна-производитель диска: Россия
Год издания диска: 2010
Издатель (лейбл): Cooking Vinyl Limited
Номер по каталогу: COOKCD511
Страна: United Kingdom
Аудио кодек: FLAC (*.flac)
Тип рипа: tracks+.cue
Битрейт аудио: lossless
Продолжительность: 45:11
Источник (релизер): свой рип (CD из личной коллекции)
Наличие сканов в содержимом раздачи: да (300dpi)
Треклист:
01. 100 Floors Of Resurrection
02. Mrs Maylie
03. Saturday
04. Just A Little Bit Of Love
05. Old Pair Of Jeans
06. Sing Children Sing
07. Harry Kidnap
08. Magic Carpet Days
09. The Word
10. Village Life
11. Postal
12. What's Mine Is Yours
13. Fell In Love On The Street Again
14. Rockfield
Код:
Exact Audio Copy V0.99 prebeta 5 from 4. May 2009
EAC extraction logfile from 5. March 2011, 20:56
Ocean Colour Scene / Saturday
Used drive  : PIONEER DVD-RW  DVR-215   Adapter: 3  ID: 0
Read mode               : Secure
Utilize accurate stream : Yes
Defeat audio cache      : Yes
Make use of C2 pointers : No
Read offset correction                      : 48
Overread into Lead-In and Lead-Out          : No
Fill up missing offset samples with silence : Yes
Delete leading and trailing silent blocks   : No
Null samples used in CRC calculations       : Yes
Used interface                              : Native Win32 interface for Win NT & 2000
Gap handling                                : Appended to previous track
Used output format              : User Defined Encoder
Selected bitrate                : 1024 kBit/s
Quality                         : High
Add ID3 tag                     : No
Command line compressor         : C:\Program Files\Exact Audio Copy\Flac\flac.exe
Additional command line options : -6 -V -T "ARTIST=%a" -T "TITLE=%t" -T "ALBUM=%g" -T "DATE=%y" -T "TRACKNUMBER=%n" -T "GENRE=%m" -T "COMMENT=%e" %s -o %d
TOC of the extracted CD
     Track |   Start  |  Length  | Start sector | End sector
    ---------------------------------------------------------
        1  |  0:00.00 |  3:10.46 |         0    |    14295
        2  |  3:10.46 |  3:14.44 |     14296    |    28889
        3  |  6:25.15 |  3:25.64 |     28890    |    44328
        4  |  9:51.04 |  2:58.57 |     44329    |    57735
        5  | 12:49.61 |  3:16.02 |     57736    |    72437
        6  | 16:05.63 |  3:42.16 |     72438    |    89103
        7  | 19:48.04 |  3:58.33 |     89104    |   106986
        8  | 23:46.37 |  3:14.52 |    106987    |   121588
        9  | 27:01.14 |  3:09.57 |    121589    |   135820
       10  | 30:10.71 |  3:27.46 |    135821    |   151391
       11  | 33:38.42 |  2:07.38 |    151392    |   160954
       12  | 35:46.05 |  3:02.71 |    160955    |   174675
       13  | 38:49.01 |  3:01.54 |    174676    |   188304
       14  | 41:50.55 |  3:21.04 |    188305    |   203383
Track  1
     Filename C:\Ocean Colour Scene\01. Ocean Colour Scene - 100 Floors Of Resurrection.wav
     Pre-gap length  0:00:02.00
     Peak level 100.0 %
     Track quality 99.9 %
     Test CRC 91F0BEE8
     Copy CRC 91F0BEE8
     Cannot be verified as accurate (confidence 10)  [E5C825FD], AccurateRip returned [5AE68195]
     Copy OK
Track  2
     Filename C:\Ocean Colour Scene\02. Ocean Colour Scene - Mrs Maylie.wav
     Peak level 100.0 %
     Track quality 99.9 %
     Test CRC F5738A70
     Copy CRC F5738A70
     Cannot be verified as accurate (confidence 10)  [43D57211], AccurateRip returned [14BE3491]
     Copy OK
Track  3
     Filename C:\Ocean Colour Scene\03. Ocean Colour Scene - Saturday.wav
     Peak level 100.0 %
     Track quality 99.9 %
     Test CRC EBA1E8AD
     Copy CRC EBA1E8AD
     Cannot be verified as accurate (confidence 10)  [A339CB77], AccurateRip returned [01AA36D7]
     Copy OK
Track  4
     Filename C:\Ocean Colour Scene\04. Ocean Colour Scene - Just A Little Bit Of Love.wav
     Pre-gap length  0:00:01.38
     Peak level 100.0 %
     Track quality 100.0 %
     Test CRC 2A74D981
     Copy CRC 2A74D981
     Cannot be verified as accurate (confidence 10)  [609B183A], AccurateRip returned [538A39AA]
     Copy OK
Track  5
     Filename C:\Ocean Colour Scene\05. Ocean Colour Scene - Old Pair Of Jeans.wav
     Pre-gap length  0:00:00.74
     Peak level 100.0 %
     Track quality 100.0 %
     Test CRC 397E13CC
     Copy CRC 397E13CC
     Cannot be verified as accurate (confidence 10)  [30FA6F35], AccurateRip returned [AEA73705]
     Copy OK
Track  6
     Filename C:\Ocean Colour Scene\06. Ocean Colour Scene - Sing Children Sing.wav
     Pre-gap length  0:00:02.38
     Peak level 100.0 %
     Track quality 100.0 %
     Test CRC CF34D129
     Copy CRC CF34D129
     Cannot be verified as accurate (confidence 10)  [5B36D8B9], AccurateRip returned [0E8BE4E1]
     Copy OK
Track  7
     Filename C:\Ocean Colour Scene\07. Ocean Colour Scene - Harry Kidnap.wav
     Pre-gap length  0:00:02.14
     Peak level 100.0 %
     Track quality 100.0 %
     Test CRC FA478B8E
     Copy CRC FA478B8E
     Cannot be verified as accurate (confidence 10)  [239E8A91], AccurateRip returned [FBD6DC11]
     Copy OK
Track  8
     Filename C:\Ocean Colour Scene\08. Ocean Colour Scene - Magic Carpet Days.wav
     Pre-gap length  0:00:00.69
     Peak level 100.0 %
     Track quality 100.0 %
     Test CRC 8B249BCB
     Copy CRC 8B249BCB
     Cannot be verified as accurate (confidence 10)  [937A61FE], AccurateRip returned [0437E43E]
     Copy OK
Track  9
     Filename C:\Ocean Colour Scene\09. Ocean Colour Scene - The Word.wav
     Pre-gap length  0:00:01.34
     Peak level 100.0 %
     Track quality 100.0 %
     Test CRC CA90E7EE
     Copy CRC CA90E7EE
     Cannot be verified as accurate (confidence 10)  [CFB96CDB], AccurateRip returned [B3B8166B]
     Copy OK
Track 10
     Filename C:\Ocean Colour Scene\10. Ocean Colour Scene - Village Life.wav
     Pre-gap length  0:00:01.62
     Peak level 100.0 %
     Track quality 100.0 %
     Test CRC 32FB785A
     Copy CRC 32FB785A
     Cannot be verified as accurate (confidence 10)  [AB0AE33C], AccurateRip returned [B46C2A4C]
     Copy OK
Track 11
     Filename C:\Ocean Colour Scene\11. Ocean Colour Scene - Postal.wav
     Pre-gap length  0:00:01.72
     Peak level 100.0 %
     Track quality 99.9 %
     Test CRC A73C7C98
     Copy CRC A73C7C98
     Cannot be verified as accurate (confidence 10)  [FC24BDF6], AccurateRip returned [A3F20D7E]
     Copy OK
Track 12
     Filename C:\Ocean Colour Scene\12. Ocean Colour Scene - What's Mine Is Yours.wav
     Pre-gap length  0:00:00.68
     Peak level 100.0 %
     Track quality 99.9 %
     Test CRC 3E689E04
     Copy CRC 3E689E04
     Cannot be verified as accurate (confidence 10)  [42522D39], AccurateRip returned [3255A339]
     Copy OK
Track 13
     Filename C:\Ocean Colour Scene\13. Ocean Colour Scene - Fell In Love On The Street Again.wav
     Pre-gap length  0:00:00.73
     Peak level 100.0 %
     Track quality 100.0 %
     Test CRC 7812561E
     Copy CRC 7812561E
     Cannot be verified as accurate (confidence 10)  [2B60CE4D], AccurateRip returned [B65D3D85]
     Copy OK
Track 14
     Filename C:\Ocean Colour Scene\14. Ocean Colour Scene - Rockfield.wav
     Peak level 100.0 %
     Track quality 100.0 %
     Test CRC F9FCC6A3
     Copy CRC F9FCC6A3
     Cannot be verified as accurate (confidence 10)  [9C700E74], AccurateRip returned [EF138D24]
     Copy OK
No tracks could be verified as accurate
You may have a different pressing from the one(s) in the database
No errors occurred
End of status report
Код:
REM GENRE Rock
REM DATE 2010
REM DISCID AE0A970E
REM COMMENT "ExactAudioCopy v0.99pb5"
PERFORMER "Ocean Colour Scene"
TITLE "Saturday"
FILE "01. Ocean Colour Scene - 100 Floors Of Resurrection.wav" WAVE
  TRACK 01 AUDIO
    TITLE "100 Floors Of Resurrection"
    PERFORMER "Ocean Colour Scene"
    INDEX 01 00:00:00
FILE "02. Ocean Colour Scene - Mrs Maylie.wav" WAVE
  TRACK 02 AUDIO
    TITLE "Mrs Maylie"
    PERFORMER "Ocean Colour Scene"
    INDEX 01 00:00:00
FILE "03. Ocean Colour Scene - Saturday.wav" WAVE
  TRACK 03 AUDIO
    TITLE "Saturday"
    PERFORMER "Ocean Colour Scene"
    INDEX 01 00:00:00
  TRACK 04 AUDIO
    TITLE "Just A Little Bit Of Love"
    PERFORMER "Ocean Colour Scene"
    INDEX 00 03:24:26
FILE "04. Ocean Colour Scene - Just A Little Bit Of Love.wav" WAVE
    INDEX 01 00:00:00
  TRACK 05 AUDIO
    TITLE "Old Pair Of Jeans"
    PERFORMER "Ocean Colour Scene"
    INDEX 00 02:57:58
FILE "05. Ocean Colour Scene - Old Pair Of Jeans.wav" WAVE
    INDEX 01 00:00:00
  TRACK 06 AUDIO
    TITLE "Sing Children Sing"
    PERFORMER "Ocean Colour Scene"
    INDEX 00 03:13:39
FILE "06. Ocean Colour Scene - Sing Children Sing.wav" WAVE
    INDEX 01 00:00:00
  TRACK 07 AUDIO
    TITLE "Harry Kidnap"
    PERFORMER "Ocean Colour Scene"
    INDEX 00 03:40:02
FILE "07. Ocean Colour Scene - Harry Kidnap.wav" WAVE
    INDEX 01 00:00:00
  TRACK 08 AUDIO
    TITLE "Magic Carpet Days"
    PERFORMER "Ocean Colour Scene"
    INDEX 00 03:57:39
FILE "08. Ocean Colour Scene - Magic Carpet Days.wav" WAVE
    INDEX 01 00:00:00
  TRACK 09 AUDIO
    TITLE "The Word"
    PERFORMER "Ocean Colour Scene"
    INDEX 00 03:13:18
FILE "09. Ocean Colour Scene - The Word.wav" WAVE
    INDEX 01 00:00:00
  TRACK 10 AUDIO
    TITLE "Village Life"
    PERFORMER "Ocean Colour Scene"
    INDEX 00 03:07:70
FILE "10. Ocean Colour Scene - Village Life.wav" WAVE
    INDEX 01 00:00:00
  TRACK 11 AUDIO
    TITLE "Postal"
    PERFORMER "Ocean Colour Scene"
    INDEX 00 03:25:49
FILE "11. Ocean Colour Scene - Postal.wav" WAVE
    INDEX 01 00:00:00
  TRACK 12 AUDIO
    TITLE "What's Mine Is Yours"
    PERFORMER "Ocean Colour Scene"
    INDEX 00 02:06:45
FILE "12. Ocean Colour Scene - What's Mine Is Yours.wav" WAVE
    INDEX 01 00:00:00
  TRACK 13 AUDIO
    TITLE "Fell In Love On The Street Again"
    PERFORMER "Ocean Colour Scene"
    INDEX 00 03:01:73
FILE "13. Ocean Colour Scene - Fell In Love On The Street Again.wav" WAVE
    INDEX 01 00:00:00
FILE "14. Ocean Colour Scene - Rockfield.wav" WAVE
  TRACK 14 AUDIO
    TITLE "Rockfield"
    PERFORMER "Ocean Colour Scene"
    INDEX 01 00:00:00
Код:
AUDIOCHECKER v2.0 beta (build 457) - by Dester - opdester@freemail.hu
~~~~~~~~~~~~~~~~~~~~~~~~~~~~~~~~~~
-=== DO NOT EDIT THIS FILE! ===-
Path: ...\Ocean Colour Scene
01 -=- 01. Ocean Colour Scene - 100 Floors Of Resurrection.flac -=- CDDA (99%)
02 -=- 02. Ocean Colour Scene - Mrs Maylie.flac -=- CDDA (100%)
03 -=- 03. Ocean Colour Scene - Saturday.flac -=- CDDA (99%)
04 -=- 04. Ocean Colour Scene - Just A Little Bit Of Love.flac -=- CDDA (100%)
05 -=- 05. Ocean Colour Scene - Old Pair Of Jeans.flac -=- CDDA (100%)
06 -=- 06. Ocean Colour Scene - Sing Children Sing.flac -=- CDDA (100%)
07 -=- 07. Ocean Colour Scene - Harry Kidnap.flac -=- CDDA (100%)
08 -=- 08. Ocean Colour Scene - Magic Carpet Days.flac -=- CDDA (100%)
09 -=- 09. Ocean Colour Scene - The Word.flac -=- CDDA (100%)
10 -=- 10. Ocean Colour Scene - Village Life.flac -=- CDDA (100%)
11 -=- 11. Ocean Colour Scene - Postal.flac -=- CDDA (100%)
12 -=- 12. Ocean Colour Scene - What's Mine Is Yours.flac -=- CDDA (100%)
13 -=- 13. Ocean Colour Scene - Fell In Love On The Street Again.flac -=- CDDA (100%)
14 -=- 14. Ocean Colour Scene - Rockfield.flac -=- CDDA (100%)
Summary 99,86% CDDA
259086676
Правила, инструкции, FAQ!!!
Торрент  Добавлен [26 мар 2019, 20:42] Скачать торрент Магнет ссылка
Скачать торрент
[ Размер 16.12 КБ / Просмотров 1 ]

Статус
Проверен 
 
Размер  358.05 МБ
Приватный: Нет (DHT включён)
.torrent скачан  0
 


     Отправить личное сообщение
   
Страница 1 из 1
Показать сообщения за:  Поле сортировки  
Начать новую тему Ответить на тему


Сейчас этот форум просматривают: нет зарегистрированных пользователей и гости: 0


Вы не можете начинать темы
Вы не можете отвечать на сообщения
Вы не можете редактировать свои сообщения
Вы не можете удалять свои сообщения
Вы не можете добавлять вложения

Перейти:  
cron