Начать новую тему Ответить на тему
Статистика раздачи
Размер: 445.34 МБ | Добавлен: 26 мар 2019, 18:40 | Скачали: 2
Сидеров: 1  [0 байт/сек]    Личеров: 0  [0 байт/сек]
Пред. тема | След. тема 

Автор
Сообщение

СообщениеДобавлено: 26 мар 2019, 18:40 

Ответить с цитатой 

Brandon Flowers / The Desired Effect [Japan Edition]
Жанр: Pop Rock
Носитель: CD
Страна-производитель диска (релиза): Japan
Год издания: 2015
Издатель (лейбл): Island Records
Номер по каталогу: UICL-1131
Страна исполнителя (группы): USA
Аудиокодек: FLAC (*.flac)
Тип рипа: tracks+.cue
Битрейт аудио: lossless
Продолжительность: 00:47:03
Источник (релизер): What.cd
Наличие сканов в содержимом раздачи: да
Треклист:
01. Dreams Come True
02. Can't Deny My Love
03. I Can Change
04. Still Want You
05. Between Me And You
06. Lonely Town
07. Diggin' Up The Heart
08. Never Get You Right
09. Untangled Love
10. The Way It's Always Been
11. The Desired Effect
12. Btwn Me 'N U
Код:
Exact Audio Copy V1.1 from 23. June 2015
EAC extraction logfile from 13. August 2015, 0:18
Brandon Flowers / The Desired Effect
Used drive  : PLEXTOR DVDR   PX-891SAW   Adapter: 1  ID: 0
Read mode               : Secure
Utilize accurate stream : Yes
Defeat audio cache      : Yes
Make use of C2 pointers : No
Read offset correction                      : 48
Overread into Lead-In and Lead-Out          : No
Fill up missing offset samples with silence : Yes
Delete leading and trailing silent blocks   : No
Null samples used in CRC calculations       : Yes
Used interface                              : Native Win32 interface for Win NT & 2000
Gap handling                                : Appended to previous track
Used output format              : User Defined Encoder
Selected bitrate                : 1024 kBit/s
Quality                         : High
Add ID3 tag                     : No
Command line compressor         : C:\Program Files (x86)\Exact Audio Copy\Flac\flac.exe
Additional command line options : -8 -V -T "ARTIST=%artist%" -T "TITLE=%title%" -T "ALBUM=%albumtitle%" -T "DATE=%year%" -T "TRACKNUMBER=%tracknr%" -T "GENRE=%genre%" -T "PERFORMER=%albuminterpret%" -T "COMPOSER=%composer%" %haslyrics%--tag-from-file=LYRICS="%lyricsfile%"%haslyrics% -T "ALBUMARTIST=%albumartist%" -T "DISCNUMBER=%cdnumber%" -T "TOTALDISCS=%totalcds%" -T "TOTALTRACKS=%numtracks%" -T "COMMENT=%comment%" %source% -o %dest%
TOC of the extracted CD
     Track |   Start  |  Length  | Start sector | End sector
    ---------------------------------------------------------
        1  |  0:00.00 |  4:03.65 |         0    |    18289
        2  |  4:03.65 |  3:42.27 |     18290    |    34966
        3  |  7:46.17 |  4:18.54 |     34967    |    54370
        4  | 12:04.71 |  3:11.21 |     54371    |    68716
        5  | 15:16.17 |  4:39.16 |     68717    |    89657
        6  | 19:55.33 |  3:30.56 |     89658    |   105463
        7  | 23:26.14 |  3:49.61 |    105464    |   122699
        8  | 27:16.00 |  3:43.73 |    122700    |   139497
        9  | 30:59.73 |  4:11.29 |    139498    |   158351
       10  | 35:11.27 |  3:56.50 |    158352    |   176101
       11  | 39:08.02 |  3:45.61 |    176102    |   193037
       12  | 42:53.63 |  4:09.31 |    193038    |   211743
Track  1
     Filename C:\Rips\01 - Dreams Come True.wav
     Pre-gap length  0:00:02.00
     Peak level 100.0 %
     Extraction speed 4.4 X
     Track quality 100.0 %
     Test CRC 644833E8
     Copy CRC 644833E8
     Accurately ripped (confidence 1)  [6524033A]  (AR v2)
     Copy OK
Track  2
     Filename C:\Rips\02 - Can't Deny My Love.wav
     Peak level 100.0 %
     Extraction speed 4.9 X
     Track quality 100.0 %
     Test CRC E4530C11
     Copy CRC E4530C11
     Accurately ripped (confidence 1)  [5BCD57E3]  (AR v2)
     Copy OK
Track  3
     Filename C:\Rips\03 - I Can Change.wav
     Peak level 100.0 %
     Extraction speed 5.5 X
     Track quality 100.0 %
     Test CRC 53BBA7E8
     Copy CRC 53BBA7E8
     Accurately ripped (confidence 1)  [5BFB73B6]  (AR v2)
     Copy OK
Track  4
     Filename C:\Rips\04 - Still Want You.wav
     Peak level 100.0 %
     Extraction speed 5.6 X
     Track quality 100.0 %
     Test CRC 93EA3DDC
     Copy CRC 93EA3DDC
     Accurately ripped (confidence 1)  [A75133E8]  (AR v2)
     Copy OK
Track  5
     Filename C:\Rips\05 - Between Me And You.wav
     Peak level 100.0 %
     Extraction speed 4.6 X
     Track quality 99.9 %
     Test CRC E57F8ED7
     Copy CRC E57F8ED7
     Accurately ripped (confidence 1)  [01B53A5B]  (AR v2)
     Copy OK
Track  6
     Filename C:\Rips\06 - Lonely Town.wav
     Peak level 100.0 %
     Extraction speed 6.4 X
     Track quality 100.0 %
     Test CRC 2BDF4382
     Copy CRC 2BDF4382
     Accurately ripped (confidence 1)  [0C5782C1]  (AR v2)
     Copy OK
Track  7
     Filename C:\Rips\07 - Diggin' Up The Heart.wav
     Peak level 100.0 %
     Extraction speed 6.8 X
     Track quality 100.0 %
     Test CRC ACC248B5
     Copy CRC ACC248B5
     Accurately ripped (confidence 1)  [7136F54C]  (AR v2)
     Copy OK
Track  8
     Filename C:\Rips\08 - Never Get You Right.wav
     Peak level 100.0 %
     Extraction speed 7.1 X
     Track quality 100.0 %
     Test CRC 1853A62C
     Copy CRC 1853A62C
     Accurately ripped (confidence 1)  [99F33830]  (AR v2)
     Copy OK
Track  9
     Filename C:\Rips\09 - Untangled Love.wav
     Peak level 100.0 %
     Extraction speed 7.5 X
     Track quality 100.0 %
     Test CRC D9B73852
     Copy CRC D9B73852
     Accurately ripped (confidence 1)  [82514E33]  (AR v2)
     Copy OK
Track 10
     Filename C:\Rips\10 - The Way It's Always Been.wav
     Peak level 100.0 %
     Extraction speed 7.7 X
     Track quality 100.0 %
     Test CRC B6CC9F30
     Copy CRC B6CC9F30
     Accurately ripped (confidence 1)  [7DAB0DDB]  (AR v2)
     Copy OK
Track 11
     Filename C:\Rips\11 - The Desired Effect.wav
     Peak level 100.0 %
     Extraction speed 7.9 X
     Track quality 100.0 %
     Test CRC 5EF2F45C
     Copy CRC 5EF2F45C
     Accurately ripped (confidence 1)  [291DA30A]  (AR v2)
     Copy OK
Track 12
     Filename C:\Rips\12 - Btwn Me 'N U.wav
     Peak level 100.0 %
     Extraction speed 8.2 X
     Track quality 100.0 %
     Test CRC A422DB35
     Copy CRC A422DB35
     Accurately ripped (confidence 1)  [1E9ED4FF]  (AR v2)
     Copy OK
All tracks accurately ripped
No errors occurred
End of status report
---- CUETools DB Plugin V2.1.6
[CTDB TOCID: iYeF950pzY8GDCYxhS_EYnr9FWM-] found
Submit result: iYeF950pzY8GDCYxhS_EYnr9FWM- has been confirmed
Track | CTDB Status
  1   | (5/5) Accurately ripped
  2   | (5/5) Accurately ripped
  3   | (5/5) Accurately ripped
  4   | (5/5) Accurately ripped
  5   | (5/5) Accurately ripped
  6   | (5/5) Accurately ripped
  7   | (5/5) Accurately ripped
  8   | (5/5) Accurately ripped
  9   | (5/5) Accurately ripped
 10   | (5/5) Accurately ripped
 11   | (5/5) Accurately ripped
 12   | (5/5) Accurately ripped
==== Log checksum C70FFE094C3E19F84998B9EF155EBB902FB98E1A46A0DD778C174B854959E00F ====
Код:
REM GENRE Indie
REM DATE 2015
REM DISCID A50B070C
REM COMMENT "ExactAudioCopy v1.1"
CATALOG 0602547357472
PERFORMER "Brandon Flowers"
TITLE "The Desired Effect"
FILE "01 - Dreams Come True.wav" WAVE
  TRACK 01 AUDIO
    TITLE "Dreams Come True"
    PERFORMER "Brandon Flowers"
    ISRC USUM71502931
    INDEX 01 00:00:00
FILE "02 - Can't Deny My Love.wav" WAVE
  TRACK 02 AUDIO
    TITLE "Can't Deny My Love"
    PERFORMER "Brandon Flowers"
    ISRC USUM71500678
    INDEX 01 00:00:00
FILE "03 - I Can Change.wav" WAVE
  TRACK 03 AUDIO
    TITLE "I Can Change"
    PERFORMER "Brandon Flowers"
    ISRC USUM71502932
    INDEX 01 00:00:00
FILE "04 - Still Want You.wav" WAVE
  TRACK 04 AUDIO
    TITLE "Still Want You"
    PERFORMER "Brandon Flowers"
    ISRC USUM71501570
    INDEX 01 00:00:00
FILE "05 - Between Me And You.wav" WAVE
  TRACK 05 AUDIO
    TITLE "Between Me And You"
    PERFORMER "Brandon Flowers"
    ISRC USUM71502933
    INDEX 01 00:00:00
FILE "06 - Lonely Town.wav" WAVE
  TRACK 06 AUDIO
    TITLE "Lonely Town"
    PERFORMER "Brandon Flowers"
    ISRC USUM71502934
    INDEX 01 00:00:00
FILE "07 - Diggin' Up The Heart.wav" WAVE
  TRACK 07 AUDIO
    TITLE "Diggin' Up The Heart"
    PERFORMER "Brandon Flowers"
    ISRC USUM71502935
    INDEX 01 00:00:00
FILE "08 - Never Get You Right.wav" WAVE
  TRACK 08 AUDIO
    TITLE "Never Get You Right"
    PERFORMER "Brandon Flowers"
    ISRC USUM71502936
    INDEX 01 00:00:00
FILE "09 - Untangled Love.wav" WAVE
  TRACK 09 AUDIO
    TITLE "Untangled Love"
    PERFORMER "Brandon Flowers"
    ISRC USUM71502937
    INDEX 01 00:00:00
FILE "10 - The Way It's Always Been.wav" WAVE
  TRACK 10 AUDIO
    TITLE "The Way It's Always Been"
    PERFORMER "Brandon Flowers"
    ISRC USUM71502938
    INDEX 01 00:00:00
FILE "11 - The Desired Effect.wav" WAVE
  TRACK 11 AUDIO
    TITLE "The Desired Effect"
    PERFORMER "Brandon Flowers"
    ISRC USUM71502939
    INDEX 01 00:00:00
FILE "12 - Btwn Me 'N U.wav" WAVE
  TRACK 12 AUDIO
    TITLE "Btwn Me 'N U"
    PERFORMER "Brandon Flowers"
    ISRC USUM71504305
    INDEX 01 00:00:00
Правила, инструкции, FAQ!!!
Торрент  Добавлен [26 мар 2019, 18:40] Скачать торрент Магнет ссылка
Скачать торрент
[ Размер 3.52 КБ / Просмотров 11 ]

Статус
Проверен 
 
Размер  445.34 МБ
Приватный: Нет (DHT включён)
.torrent скачан  2
 


     Отправить личное сообщение
   
Страница 1 из 1
Показать сообщения за:  Поле сортировки  
Начать новую тему Ответить на тему


Сейчас этот форум просматривают: нет зарегистрированных пользователей и гости: 0


Вы не можете начинать темы
Вы не можете отвечать на сообщения
Вы не можете редактировать свои сообщения
Вы не можете удалять свои сообщения
Вы не можете добавлять вложения

Перейти:  
cron