Начать новую тему Ответить на тему
Статистика раздачи
Размер: 279.05 МБ | Добавлен: 26 мар 2019, 20:45 | Скачали: 0
Сидеров: 3  [0 байт/сек]    Личеров: 1  [0 байт/сек]
Пред. тема | След. тема 

Автор
Сообщение

СообщениеДобавлено: 26 мар 2019, 20:45 

Ответить с цитатой 

Brandon Flowers - The Desired Effect
Жанр: Pop Rock
Носитель: CD
Страна-производитель диска (релиза): EU
Год издания: 2015
Издатель (лейбл): Island Records
Страна исполнителя (группы): US
Аудиокодек: FLAC (*.flac)
Тип рипа: image+.cue
Битрейт аудио: lossless
Продолжительность: 00:39:08
Источник (релизер): usenet
Наличие сканов в содержимом раздачи: да
Треклист:
01. Dreams Come True [4:04]
02. Can't Deny My Love [3:42]
03. I Can Change [4:19]
04. Still Want You [3:11]
05. Between Me And You [4:39]
06. Lonely Town [3:31]
07. Diggin' Up The Heart [3:50]
08. Never Get You Right [3:44]
09. Untangled Love [4:11]
10. The Way It's Always Been [3:57]
Код:
Exact Audio Copy V1.0 beta 6 from 9. April 2015
EAC extraction logfile from 17. May 2015, 11:55
Brandon Flowers / The Desired Effect
Used drive  : hp      CDDVDW SH-216DB   Adapter: 1  ID: 0
Read mode               : Secure
Utilize accurate stream : Yes
Defeat audio cache      : Yes
Make use of C2 pointers : No
Read offset correction                      : 6
Overread into Lead-In and Lead-Out          : No
Fill up missing offset samples with silence : Yes
Delete leading and trailing silent blocks   : No
Null samples used in CRC calculations       : Yes
Used interface                              : Native Win32 interface for Win NT & 2000
Used output format : Internal WAV Routines
Sample format      : 44.100 Hz; 16 Bit; Stereo
TOC of the extracted CD
     Track |   Start  |  Length  | Start sector | End sector
    ---------------------------------------------------------
        1  |  0:00.00 |  4:03.65 |         0    |    18289
        2  |  4:03.65 |  3:42.31 |     18290    |    34970
        3  |  7:46.21 |  4:18.50 |     34971    |    54370
        4  | 12:04.71 |  3:11.21 |     54371    |    68716
        5  | 15:16.17 |  4:39.20 |     68717    |    89661
        6  | 19:55.37 |  3:30.52 |     89662    |   105463
        7  | 23:26.14 |  3:49.61 |    105464    |   122699
        8  | 27:16.00 |  3:43.73 |    122700    |   139497
        9  | 30:59.73 |  4:11.33 |    139498    |   158355
       10  | 35:11.31 |  3:56.49 |    158356    |   176104
Range status and errors
Selected range
     Filename E:\POST\Brandon Flowers - The Desired Effect (EAC)\Brandon Flowers - The Desired Effect.wav
     Peak level 100.0 %
     Extraction speed 6.4 X
     Range quality 100.0 %
     Test CRC F74259D3
     Copy CRC F74259D3
     Copy OK
No errors occurred
AccurateRip summary
Track  1  not present in database
Track  2  not present in database
Track  3  not present in database
Track  4  not present in database
Track  5  not present in database
Track  6  not present in database
Track  7  not present in database
Track  8  not present in database
Track  9  not present in database
Track 10  not present in database
None of the tracks are present in the AccurateRip database
End of status report
Правила, инструкции, FAQ!!!
Торрент  Добавлен [26 мар 2019, 20:45] Скачать торрент Магнет ссылка
Скачать торрент
[ Размер 11.74 КБ / Просмотров 7 ]

Статус
Проверен 
 
Размер  279.05 МБ
Приватный: Нет (DHT включён)
.torrent скачан  0
 


     Отправить личное сообщение
   
Страница 1 из 1
Показать сообщения за:  Поле сортировки  
Начать новую тему Ответить на тему


Сейчас этот форум просматривают: нет зарегистрированных пользователей и гости: 0


Вы не можете начинать темы
Вы не можете отвечать на сообщения
Вы не можете редактировать свои сообщения
Вы не можете удалять свои сообщения
Вы не можете добавлять вложения

Перейти:  
cron