Начать новую тему Ответить на тему
Статистика раздачи
Размер: 340.06 МБ | Добавлен: 26 мар 2019, 20:34 | Скачали: 0
Сидеров: 0  [0 байт/сек]    Личеров: 0  [0 байт/сек]
Пред. тема | След. тема 

Автор
Сообщение

СообщениеДобавлено: 26 мар 2019, 20:34 

Ответить с цитатой 

Boxing Gandhis / Howard
Жанр: Pop-Rock
Носитель: CD
Страна-производитель диска (релиза): usa
Год издания: 1996
Издатель (лейбл): Atlantic
Номер по каталогу: 82920-2
Страна исполнителя (группы): usa
Аудиокодек: FLAC (*.flac)
Тип рипа: tracks+.cue
Битрейт аудио: lossless
Продолжительность: 45:03
Источник (релизер): own rip
Наличие сканов в содержимом раздачи: да
Треклист:
01. Roll (02:58)
02. Piece In The Valley (02:49)
03. Promised Land (04:21)
04. Sun Don't Shine On Everyone (03:58)
05. Just Another Week Part#2 (00:18)
06. Cuzacan (03:52)
07. Image Of You (03:52)
08. Funky Little Princess (03:03)
09. Far From Over (04:41)
10. Just Another Week Part #3 (00:24)
11. Letter (03:32)
12. Tell Me Why (04:17)
13. Love Her, Too (04:42)
14. The Butler (01:31)
15. Just Another Week Part #4 (00:37)
Код:
Exact Audio Copy V1.0 beta 2 from 29. April 2011
Отчёт EAC об извлечении, выполненном 24. декабря 2017, 14:41
Boxing Gandhis / Howard
Дисковод: ASUS    DRW-24D5MT   Adapter: 0  ID: 1
Режим чтения                 : Достоверность
Использование точного потока : Да
Отключение кэша аудио        : Да
Использование указателей C2  : Нет
Коррекция смещения при чтении                     : 6
Способность читать области Lead-in и Lead-out     : Нет
Заполнение пропущенных сэмплов тишиной            : Да
Удаление блоков с тишиной в начале и конце        : Нет
При вычислениях CRC использовались нулевые сэмплы : Да
Интерфейс                                         : Встроенный Win32-интерфейс для Win NT/2000
Обработка зазоров                                 : Добавлено к предыдущему треку
Выходной формат          : Пользовательский кодировщик
Выбранный битрейт        : 128 kBit/s
Качество                 : Высокий
Добавление ID3-тега      : Нет
Утилита сжатия           : C:\Program Files\Exact Audio Copy\FLAC\FLAC.EXE
Дополнительные параметры : -6 -V -T "ARTIST=%artist%" -T "TITLE=%title%" -T "ALBUM=%albumtitle%" -T "DATE=%year%" -T "TRACKNUMBER=%tracknr%" -T "GENRE=%genre%" -T "COMMENT=%comment%" -T "BAND=%albuminterpret%" -T "COMPOSER=%composer%" %haslyrics%--tag-from-
TOC извлечённого CD
     Трек |   Старт  | Длительность | Начальный сектор | Конечный сектор
    ---------------------------------------------------------------------
       1  |  0:00.32 |    2:58.55   |          32      |      13436
       2  |  2:59.12 |    2:49.50   |       13437      |      26161
       3  |  5:48.62 |    4:21.20   |       26162      |      45756
       4  | 10:10.07 |    3:58.53   |       45757      |      63659
       5  | 14:08.60 |    0:18.60   |       63660      |      65069
       6  | 14:27.45 |    3:52.47   |       65070      |      82516
       7  | 18:20.17 |    3:52.00   |       82517      |      99916
       8  | 22:12.17 |    3:03.60   |       99917      |     113701
       9  | 25:16.02 |    4:41.55   |      113702      |     134831
      10  | 29:57.57 |    0:24.45   |      134832      |     136676
      11  | 30:22.27 |    3:32.25   |      136677      |     152601
      12  | 33:54.52 |    4:17.20   |      152602      |     171896
      13  | 38:11.72 |    4:42.73   |      171897      |     193119
      14  | 42:54.70 |    1:31.12   |      193120      |     199956
      15  | 44:26.07 |    0:37.33   |      199957      |     202764
Трек  1
     Имя файла D:\FLAC\01 Roll.wav
     Длина предзазора  0:00:02.32
     Пиковый уровень 100.0 %
     Скорость извлечения 1.1 X
     Качество трека 100.0 %
     CRC теста 759209FB
     CRC копии 759209FB
     Точное извлечение (достоверность 6)  [FB31FB4C]  (AR v2)
     Копирование... OK
Трек  2
     Имя файла D:\FLAC\02 Piece In The Valley.wav
     Длина предзазора  0:00:01.50
     Пиковый уровень 100.0 %
     Скорость извлечения 1.0 X
     Качество трека 99.9 %
     CRC теста 6F8B5556
     CRC копии 6F8B5556
     Точное извлечение (достоверность 5)  [E67D653A]  (AR v2)
     Копирование... OK
Трек  3
     Имя файла D:\FLAC\03 Promised Land.wav
     Длина предзазора  0:00:01.05
     Пиковый уровень 100.0 %
     Скорость извлечения 1.2 X
     Качество трека 99.9 %
     CRC теста 59C7DD0C
     CRC копии 59C7DD0C
     Точное извлечение (достоверность 6)  [64D6B071]  (AR v2)
     Копирование... OK
Трек  4
     Имя файла D:\FLAC\04 Sun Don't Shine On Everyone.wav
     Длина предзазора  0:00:01.25
     Пиковый уровень 100.0 %
     Скорость извлечения 1.3 X
     Качество трека 99.9 %
     CRC теста AF76EC4C
     CRC копии AF76EC4C
     Трек не обнаружен в базе AccurateRip
     Копирование... OK
Трек  5
     Имя файла D:\FLAC\05 Just Another Week Part#2.wav
     Длина предзазора  0:00:01.06
     Пиковый уровень 95.3 %
     Скорость извлечения 0.6 X
     Качество трека 100.0 %
     CRC теста B163DFD7
     CRC копии B163DFD7
     Точное извлечение (достоверность 6)  [B9E0960B]  (AR v2)
     Копирование... OK
Трек  6
     Имя файла D:\FLAC\06 Cuzacan.wav
     Длина предзазора  0:00:00.51
     Пиковый уровень 100.0 %
     Скорость извлечения 1.5 X
     Качество трека 100.0 %
     CRC теста DFBAAA9C
     CRC копии DFBAAA9C
     Точное извлечение (достоверность 6)  [1D0A3DA8]  (AR v2)
     Копирование... OK
Трек  7
     Имя файла D:\FLAC\07 Image Of You.wav
     Длина предзазора  0:00:01.48
     Пиковый уровень 100.0 %
     Скорость извлечения 1.6 X
     Качество трека 100.0 %
     CRC теста 42CA960E
     CRC копии 42CA960E
     Точное извлечение (достоверность 6)  [33CB7DC2]  (AR v2)
     Копирование... OK
Трек  8
     Имя файла D:\FLAC\08 Funky Little Princess.wav
     Длина предзазора  0:00:01.73
     Пиковый уровень 100.0 %
     Скорость извлечения 1.6 X
     Качество трека 100.0 %
     CRC теста 3A018B34
     CRC копии 3A018B34
     Точное извлечение (достоверность 6)  [503FF3D6]  (AR v2)
     Копирование... OK
Трек  9
     Имя файла D:\FLAC\09 Far From Over.wav
     Пиковый уровень 100.0 %
     Скорость извлечения 1.8 X
     Качество трека 100.0 %
     CRC теста 83F822D5
     CRC копии 83F822D5
     Точное извлечение (достоверность 6)  [69CFFFB6]  (AR v2)
     Копирование... OK
Трек 10
     Имя файла D:\FLAC\10 Just Another Week Part #3.wav
     Длина предзазора  0:00:02.23
     Пиковый уровень 98.7 %
     Скорость извлечения 0.8 X
     Качество трека 100.0 %
     CRC теста C85D4E6A
     CRC копии C85D4E6A
     Точное извлечение (достоверность 6)  [14E9C649]  (AR v2)
     Копирование... OK
Трек 11
     Имя файла D:\FLAC\11 Letter.wav
     Длина предзазора  0:00:00.70
     Пиковый уровень 100.0 %
     Скорость извлечения 1.8 X
     Качество трека 100.0 %
     CRC теста 5CCC0F53
     CRC копии 5CCC0F53
     Точное извлечение (достоверность 6)  [8B3C8244]  (AR v2)
     Копирование... OK
Трек 12
     Имя файла D:\FLAC\12 Tell Me Why.wav
     Длина предзазора  0:00:01.53
     Пиковый уровень 100.0 %
     Скорость извлечения 1.7 X
     Качество трека 99.9 %
     CRC теста 4020189F
     CRC копии 4020189F
     Точное извлечение (достоверность 6)  [11C40EED]  (AR v2)
     Копирование... OK
Трек 13
     Имя файла D:\FLAC\13 Love Her, Too.wav
     Длина предзазора  0:00:00.68
     Пиковый уровень 100.0 %
     Скорость извлечения 2.1 X
     Качество трека 100.0 %
     CRC теста EE6FC4CB
     CRC копии EE6FC4CB
     Точное извлечение (достоверность 6)  [17B1E922]  (AR v2)
     Копирование... OK
Трек 14
     Имя файла D:\FLAC\14 The Butler.wav
     Длина предзазора  0:00:01.18
     Пиковый уровень 100.0 %
     Скорость извлечения 1.7 X
     Качество трека 100.0 %
     CRC теста 90F547E9
     CRC копии 90F547E9
     Точное извлечение (достоверность 6)  [8E4100F9]  (AR v2)
     Копирование... OK
Трек 15
     Имя файла D:\FLAC\15 Just Another Week Part #4.wav
     Пиковый уровень 96.4 %
     Скорость извлечения 1.1 X
     Качество трека 100.0 %
     CRC теста 2CDFB1E4
     CRC копии 2CDFB1E4
     Точное извлечение (достоверность 6)  [7B1DDF87]  (AR v2)
     Копирование... OK
14 трек(и) скопированы точно
 1 трек(и) не содержатся в базе AccurateRip
Некоторые треки не прошли проверку на точность
Ошибок не произошло
Конец отчёта
---- CUETools DB Plugin V2.1.4
[CTDB TOCID: x.e6BWrS83KIVf3egCBSYfBMles-] found
Submit result: x.e6BWrS83KIVf3egCBSYfBMles- has been confirmed
Track | CTDB Status
  1   | (4/4) Accurately ripped
  2   | (4/4) Accurately ripped
  3   | (4/4) Accurately ripped
  4   | (4/4) Accurately ripped
  5   | (4/4) Accurately ripped
  6   | (4/4) Accurately ripped
  7   | (4/4) Accurately ripped
  8   | (4/4) Accurately ripped
  9   | (4/4) Accurately ripped
 10   | (4/4) Accurately ripped
 11   | (4/4) Accurately ripped
 12   | (4/4) Accurately ripped
 13   | (4/4) Accurately ripped
 14   | (4/4) Accurately ripped
 15   | (4/4) Accurately ripped
==== Контрольная сумма отчёта A1CA7E2DD38A1B30E9F1EC226C8C910C17ACC49B829362EB49D99355FBA38322 ====
Код:
REM GENRE rock
REM DATE 1996
REM DISCID CD0A8F0F
REM COMMENT "ExactAudioCopy v1.0b2"
CATALOG 0075678292026
PERFORMER "Boxing Gandhis"
TITLE "Howard"
FILE "01 Roll.wav" WAVE
  TRACK 01 AUDIO
    TITLE "Roll"
    PERFORMER "Boxing Gandhis"
    PREGAP 00:00:32
    INDEX 01 00:00:00
  TRACK 02 AUDIO
    TITLE "Piece In The Valley"
    PERFORMER "Boxing Gandhis"
    INDEX 00 02:57:05
FILE "02 Piece In The Valley.wav" WAVE
    INDEX 01 00:00:00
  TRACK 03 AUDIO
    TITLE "Promised Land"
    PERFORMER "Boxing Gandhis"
    INDEX 00 02:48:45
FILE "03 Promised Land.wav" WAVE
    INDEX 01 00:00:00
  TRACK 04 AUDIO
    TITLE "Sun Don't Shine On Everyone"
    PERFORMER "Boxing Gandhis"
    INDEX 00 04:19:70
FILE "04 Sun Don't Shine On Everyone.wav" WAVE
    INDEX 01 00:00:00
  TRACK 05 AUDIO
    TITLE "Just Another Week Part#2"
    PERFORMER "Boxing Gandhis"
    INDEX 00 03:57:47
FILE "05 Just Another Week Part#2.wav" WAVE
    INDEX 01 00:00:00
  TRACK 06 AUDIO
    TITLE "Cuzacan"
    PERFORMER "Boxing Gandhis"
    INDEX 00 00:18:09
FILE "06 Cuzacan.wav" WAVE
    INDEX 01 00:00:00
  TRACK 07 AUDIO
    TITLE "Image Of You"
    PERFORMER "Boxing Gandhis"
    INDEX 00 03:50:74
FILE "07 Image Of You.wav" WAVE
    INDEX 01 00:00:00
  TRACK 08 AUDIO
    TITLE "Funky Little Princess"
    PERFORMER "Boxing Gandhis"
    INDEX 00 03:50:02
FILE "08 Funky Little Princess.wav" WAVE
    INDEX 01 00:00:00
FILE "09 Far From Over.wav" WAVE
  TRACK 09 AUDIO
    TITLE "Far From Over"
    PERFORMER "Boxing Gandhis"
    INDEX 01 00:00:00
  TRACK 10 AUDIO
    TITLE "Just Another Week Part #3"
    PERFORMER "Boxing Gandhis"
    INDEX 00 04:39:32
FILE "10 Just Another Week Part #3.wav" WAVE
    INDEX 01 00:00:00
  TRACK 11 AUDIO
    TITLE "Letter"
    PERFORMER "Boxing Gandhis"
    INDEX 00 00:23:50
FILE "11 Letter.wav" WAVE
    INDEX 01 00:00:00
  TRACK 12 AUDIO
    TITLE "Tell Me Why"
    PERFORMER "Boxing Gandhis"
    INDEX 00 03:30:47
FILE "12 Tell Me Why.wav" WAVE
    INDEX 01 00:00:00
  TRACK 13 AUDIO
    TITLE "Love Her, Too"
    PERFORMER "Boxing Gandhis"
    INDEX 00 04:16:27
FILE "13 Love Her, Too.wav" WAVE
    INDEX 01 00:00:00
  TRACK 14 AUDIO
    TITLE "The Butler"
    PERFORMER "Boxing Gandhis"
    INDEX 00 04:41:55
FILE "14 The Butler.wav" WAVE
    INDEX 01 00:00:00
FILE "15 Just Another Week Part #4.wav" WAVE
  TRACK 15 AUDIO
    TITLE "Just Another Week Part #4"
    PERFORMER "Boxing Gandhis"
    INDEX 01 00:00:00
Доп. информация: https://www.allmusic.com/album/howard-mw0000074785
Правила, инструкции, FAQ!!!
Торрент  Добавлен [26 мар 2019, 20:34] Скачать торрент Магнет ссылка
Скачать торрент
[ Размер 15.2 КБ / Просмотров 7 ]

Статус
Проверен 
 
Размер  340.06 МБ
Приватный: Нет (DHT включён)
.torrent скачан  0
 


     Отправить личное сообщение
   
Страница 1 из 1
Показать сообщения за:  Поле сортировки  
Начать новую тему Ответить на тему


Сейчас этот форум просматривают: нет зарегистрированных пользователей и гости: 0


Вы не можете начинать темы
Вы не можете отвечать на сообщения
Вы не можете редактировать свои сообщения
Вы не можете удалять свои сообщения
Вы не можете добавлять вложения

Перейти:  
cron