Начать новую тему Ответить на тему
Статистика раздачи
Размер: 2.61 ГБ | Добавлен: 26 мар 2019, 19:42 | Скачали: 0
Сидеров: 0  [0 байт/сек]    Личеров: 0  [0 байт/сек]
Пред. тема | След. тема 

Автор
Сообщение

СообщениеДобавлено: 26 мар 2019, 19:42 

Ответить с цитатой 




Danny Litani (דני ליטני) - Коллекция - 7 альбомов - 1978-1997

Дани Литани родился в 1943, в Хайфе, как Дан Литовски. На разных альбомах его фамилия пишется по разному - Litani, Litany, Littany. Актер, музыкант, композитор, автор-исполнитель, активный с 70-х по сей день. Уникален использованием блюзовых интонаций и приемов в своих песнях. Далее, под спойлером, перечислены его сольные альбомы и основные совместные альбомы с другими артистами (будут выкладываться отдельно)
1974 - יהונתן גפן, דני ליטני - זה הכל בינתיים
1974 - יהונתן גפן, דני ליטני - בינתיים זה הכל
1976 - יהונתן גפן, דני ליטני, מיקי גבריאלוב, חיים רומנו, דני פאר - מכתבים למערכת
1977 (2007) - יחס חם (Теплое отношение, Very Together)
1978 (1996) - הבזאר הגדול (Большой базар)
שמיים עם דני ליטני - (1993) 1980
1992 - תקופת החיץ (Переходный период)
1994 - Out <- מין (Изнутри)
1996 - בלוז (Блюз 1)
1997 - בלוז 2 (Блюз 2)
1999 - דני ליטני, יואל לרנר, אורי הרפז, דני רובס - ערבה אל ערבה
2001 - יהונתן גפן, דני ליטני - זה הכל בינתיים, בינתיים זה הכל
2008 - סיכום ביניים - Subtotal
Страна исполнителя: Israel
Жанр: Pop-rock, blues-rock, singer-songwriter || Аудио кодек: FLAC || Тип рипа: (tracks + .cue) || Битрейт аудио: lossless || Включает: Full artwork || Общая длительность: 6:34:40 || Источник : Моя коллекция
В 1977 Литани записал в арранжировке американского гитариста и скрипача Фреда Фильда первую песню для своего первого сольного альбома - "יחס חם" (Теплое отношение), и продолжил готовить материал для альбома, одновременно выступая в мюзикле Большой Базар. Альбом вышел в марте 1978 с арранжировками и продюссированием Филда. Входили в альбом переделанные старые песни Литани и несколько новых. Вошли в альбом и два дуэта с Йехудит Равитц, с которой он перед этим успешно выступал с программой "בראש אחד" (Единомышленники). Эти два дуэта отличались от ивритского кантри-рока, проповедуемого Филдом, который на записи играл на многих инструментах - от гитары до губной гармошки. Учавствовали в записи и несколько звезд, с тех пор занявших лидирующие позиции в Израильской поп- и рок- музыке: Эстер и Эфраим Шамир, Шалом Ханох, Ханан Йовель. Альбом "Теплое отношение" был с очень теплым отношением принят на Израильском радио, и его песни еще годы звучали в эфире
Жанр: Pop-rock, country-rock, progressive, folk-rocl
Год издания оригинала: 1978 CBS Records 81099
Год переиздания: 2007
Страна - производитель диска: Israel
Издатель (лейбл): NMC
Номер по каталогу: 81099-2-NMCX
Тип: Extended reissue with bonuses
Продолжительность: 60:48 + 39:44
Трэклист:
CD1
1. ציף ציף על הרציף - ? (Ярон Лондон - Дани Литани)
2. משבר אמון - Кризис доверия (Дани Литани - Дани Литани)
3. אדם זקן - Старик (Давид Авидан - Дани Литани)
4. ולא היה בינינו אלא זוהר - Между нами было только сияние (Лея Голдберг - Дани Дитани)
5. אמרה שתחזרי - Сказала, что вернешься (Рахель Шапиро - Дани Литани)
6. לא טוב היות האדם לבדו - Плохо человеку быть одному (с Юдит Равитц) (Натан Зах - Дани Литани)
7. יחס חם - Теплое отношение (Дани Литани - Дани Литани)
8. היום בו נפלו השמים - День, когда упали небеса (Дани Литани - Дани Литани)
9. יום נוסף - Добавочный день (Дани Литани - Дани Литани)
10. אופליה - יהונתן גפן, דני ליטני - Офелия (Йонатан Геффен - Дани Литани)
11. בראש אחד - Единое мнение (с Юдит Равитц) (Дани Литани - Дани Литани)
Bonuses: -
12. ולא היה בינינו אלא זוהר - Между нами было только сияние - Концерт, Zavta 1976, опубликованно впервые (Лея Голдберг - Дани Дитани)
13. יום נוסף - Добавочный день - Концерт, Zavta 1976, опубликованно впервые (Дани Литани - Дани Литани)
14. ערב פתאומי - Внезапный вечер - для радио трансляции 1973, опубликованно впервые (Давид Авидан - Дани Литани)
15. אופליה - Офелия - для радио трансляции 1974, опубликованно впервые (Йонатан Геффен - Дани Литани)
CD2
16. יין קיץ Summer Wine - Летнее вино - Концерт, Zavta 1976, с Хавой Альберштейн (Ли Хайзельвуд / перевод Йехуд Манор - Дани Литани)
17. נים לא נים - Спящий, не спящий - записано для радио, 1970 (Янкеле Розенблит - Дани Литани)
18. שלושה מתוך שלושה מליונים - Три из трех миллионов - записано для радио, 1970 (Амос Кейнан - Дани Литани)
19. דלילה - Далила - записано для радио, 1970 (Лея Голдберг - Дани Дитани)
20. סמטת התותים - Земляничный переулок - записано для радио, 1974, с Сандрой Джонсон (Яков Шабтай - трад. Амер.)
21. סיפור של אהבה - История любви - концерт, мюзикл "Big Bazar" (Йехуд Манор - Мишель Фоган)
22. והיה כי תמצאו - И он найдет - записано для радио, 1973 (Хаим Нахман Бялик - Дани Литани)
23. היתה לי בחורה - Была у меня девушка - записано для радио, 1975 (Йонатан Геффен - Луи Лахав)
24. ישראלה בת 25 - 25-летняя Исраэла - записано для радио, 1973 (Давид Авидан - Дани Литани)
25. מה יהיה בסופנו - Что будет с нами в конце - фестиваль певцов, 1975 (Лея Голдберг - Дани Дитани)
26. לפנות בוקר - Перед утром - из LP "Shamaim" 1976 (Меир Визельтир - Дани Литани)
Код:
Exact Audio Copy V1.3 from 2. September 2016
EAC extraction logfile from 14. January 2017, 15:56
דני ליטני / יחס חם - דיסק 1
Used drive  : HL-DT-STDVDRAM GSA-T50N   Adapter: 1  ID: 0
Read mode               : Secure
Utilize accurate stream : Yes
Defeat audio cache      : Yes
Make use of C2 pointers : No
Read offset correction                      : 667
Overread into Lead-In and Lead-Out          : No
Fill up missing offset samples with silence : Yes
Delete leading and trailing silent blocks   : No
Null samples used in CRC calculations       : Yes
Used interface                              : Native Win32 interface for Win NT & 2000
Gap handling                                : Appended to previous track
Used output format              : User Defined Encoder
Selected bitrate                : 1024 kBit/s
Quality                         : High
Add ID3 tag                     : No
Command line compressor         : C:\Program Files\Exact Audio Copy\Flac\flac.exe
Additional command line options : -V -8 -T "Genre=%genre%" -T "Artist=%artist%" -T "Title=%title%" -T "Album=%albumtitle%" -T "Date=%year%" -T "Tracknumber=%tracknr%" %source% -o %dest%
TOC of the extracted CD
     Track |   Start  |  Length  | Start sector | End sector
    ---------------------------------------------------------
        1  |  0:00.00 |  3:08.37 |         0    |    14136
        2  |  3:08.37 |  3:45.65 |     14137    |    31076
        3  |  6:54.27 |  3:12.54 |     31077    |    45530
        4  | 10:07.06 |  3:53.02 |     45531    |    63007
        5  | 14:00.08 |  4:19.53 |     63008    |    82485
        6  | 18:19.61 |  5:10.45 |     82486    |   105780
        7  | 23:30.31 |  4:37.27 |    105781    |   126582
        8  | 28:07.58 |  4:41.49 |    126583    |   147706
        9  | 32:49.32 |  3:53.62 |    147707    |   165243
       10  | 36:43.19 |  4:29.42 |    165244    |   185460
       11  | 41:12.61 |  5:02.74 |    185461    |   208184
       12  | 46:15.60 |  3:47.47 |    208185    |   225256
       13  | 50:03.32 |  3:55.47 |    225257    |   242928
       14  | 53:59.04 |  3:09.67 |    242929    |   257170
       15  | 57:08.71 |  3:40.26 |    257171    |   273696
Track  1
     Filename C:\Musicgate's rips\דני ליטני - יחס חם - 1978\cd1\01 - ציף ציף מעל הרציף.wav
     Pre-gap length  0:00:02.00
     Peak level 98.8 %
     Extraction speed 2.2 X
     Track quality 100.0 %
     Test CRC FB8683C8
     Copy CRC FB8683C8
     Accurately ripped (confidence 1)  [14F7122E]  (AR v2)
     Copy OK
Track  2
     Filename C:\Musicgate's rips\דני ליטני - יחס חם - 1978\cd1\02 - משבר אמון.wav
     Peak level 98.8 %
     Extraction speed 2.6 X
     Track quality 100.0 %
     Test CRC 6A346192
     Copy CRC 6A346192
     Accurately ripped (confidence 1)  [C7B667EC]  (AR v2)
     Copy OK
Track  3
     Filename C:\Musicgate's rips\דני ליטני - יחס חם - 1978\cd1\03 - אדם זקן.wav
     Peak level 93.3 %
     Extraction speed 2.7 X
     Track quality 100.0 %
     Test CRC 2E413430
     Copy CRC 2E413430
     Accurately ripped (confidence 1)  [C127D45D]  (AR v2)
     Copy OK
Track  4
     Filename C:\Musicgate's rips\דני ליטני - יחס חם - 1978\cd1\04 - ולא היה בינינו אלא זוהר.wav
     Pre-gap length  0:00:01.71
     Peak level 100.0 %
     Extraction speed 2.6 X
     Track quality 99.9 %
     Test CRC 7BE46B77
     Copy CRC 7BE46B77
     Accurately ripped (confidence 1)  [0D7067F2]  (AR v2)
     Copy OK
Track  5
     Filename C:\Musicgate's rips\דני ליטני - יחס חם - 1978\cd1\05 - אמרת שתחזרי.wav
     Pre-gap length  0:00:00.67
     Peak level 98.8 %
     Extraction speed 3.2 X
     Track quality 100.0 %
     Test CRC F612BCFD
     Copy CRC F612BCFD
     Accurately ripped (confidence 1)  [2CEABA60]  (AR v2)
     Copy OK
Track  6
     Filename C:\Musicgate's rips\דני ליטני - יחס חם - 1978\cd1\06 - לא טוב היות האדם לבדו.wav
     Pre-gap length  0:00:00.25
     Peak level 93.3 %
     Extraction speed 3.5 X
     Track quality 100.0 %
     Test CRC 585D0F65
     Copy CRC 585D0F65
     Accurately ripped (confidence 1)  [DFBDF59A]  (AR v2)
     Copy OK
Track  7
     Filename C:\Musicgate's rips\דני ליטני - יחס חם - 1978\cd1\07 - יחס חם.wav
     Peak level 98.8 %
     Extraction speed 3.7 X
     Track quality 100.0 %
     Test CRC 0B599455
     Copy CRC 0B599455
     Accurately ripped (confidence 1)  [D14B2724]  (AR v2)
     Copy OK
Track  8
     Filename C:\Musicgate's rips\דני ליטני - יחס חם - 1978\cd1\08 - היום בו נפלו השמיים.wav
     Peak level 98.8 %
     Extraction speed 3.8 X
     Track quality 100.0 %
     Test CRC 3F236EB6
     Copy CRC 3F236EB6
     Accurately ripped (confidence 1)  [FD44A277]  (AR v2)
     Copy OK
Track  9
     Filename C:\Musicgate's rips\דני ליטני - יחס חם - 1978\cd1\09 - יום נוסף.wav
     Peak level 92.2 %
     Extraction speed 3.9 X
     Track quality 100.0 %
     Test CRC C894F607
     Copy CRC C894F607
     Accurately ripped (confidence 1)  [508E7B70]  (AR v2)
     Copy OK
Track 10
     Filename C:\Musicgate's rips\דני ליטני - יחס חם - 1978\cd1\10 - אופליה.wav
     Peak level 93.3 %
     Extraction speed 3.7 X
     Track quality 99.9 %
     Test CRC DA946587
     Copy CRC DA946587
     Accurately ripped (confidence 1)  [FE25C360]  (AR v2)
     Copy OK
Track 11
     Filename C:\Musicgate's rips\דני ליטני - יחס חם - 1978\cd1\11 - בראש אחד.wav
     Peak level 98.8 %
     Extraction speed 4.3 X
     Track quality 100.0 %
     Test CRC 27F8CBC2
     Copy CRC 27F8CBC2
     Accurately ripped (confidence 1)  [9050A224]  (AR v2)
     Copy OK
Track 12
     Filename C:\Musicgate's rips\דני ליטני - יחס חם - 1978\cd1\12 - ולא היה בינינו אלא זוהר - בהופעה.wav
     Peak level 98.8 %
     Extraction speed 4.3 X
     Track quality 100.0 %
     Test CRC 296747A1
     Copy CRC 296747A1
     Accurately ripped (confidence 1)  [D447A002]  (AR v2)
     Copy OK
Track 13
     Filename C:\Musicgate's rips\דני ליטני - יחס חם - 1978\cd1\13 - יום נוסף - בהופעה.wav
     Peak level 98.8 %
     Extraction speed 2.3 X
     Track quality 100.0 %
     Test CRC F0971350
     Copy CRC F0971350
     Accurately ripped (confidence 1)  [175E33FB]  (AR v2)
     Copy OK
Track 14
     Filename C:\Musicgate's rips\דני ליטני - יחס חם - 1978\cd1\14 - ערב פתאומי.wav
     Peak level 98.8 %
     Extraction speed 1.9 X
     Track quality 99.9 %
     Test CRC 635D1654
     Copy CRC 635D1654
     Accurately ripped (confidence 1)  [5210F6C4]  (AR v2)
     Copy OK
Track 15
     Filename C:\Musicgate's rips\דני ליטני - יחס חם - 1978\cd1\15 - אופליה.wav
     Peak level 98.8 %
     Extraction speed 2.4 X
     Track quality 100.0 %
     Test CRC 5D6FA1BC
     Copy CRC 5D6FA1BC
     Accurately ripped (confidence 1)  [C727EF5D]  (AR v2)
     Copy OK
All tracks accurately ripped
No errors occurred
End of status report
==== Log checksum 2F17568D8B51773982D4D8CA502580AE612B45C49D0F9AAF9D27A0E8C84DEBEB ====
Код:
REM GENRE "Rock Israeli"
REM DATE 2001
REM DISCID B60E410F
REM COMMENT "ExactAudioCopy v1.3"
PERFORMER "דני ליטני"
TITLE "יחס חם - דיסק 1"
REM COMPOSER ""
FILE "01 - ציף ציף מעל הרציף.wav" WAVE
  TRACK 01 AUDIO
    TITLE "ציף ציף מעל הרציף"
    PERFORMER "דני ליטני"
    REM COMPOSER ""
    INDEX 01 00:00:00
FILE "02 - משבר אמון.wav" WAVE
  TRACK 02 AUDIO
    TITLE "משבר אמון"
    PERFORMER "דני ליטני"
    REM COMPOSER ""
    INDEX 01 00:00:00
FILE "03 - אדם זקן.wav" WAVE
  TRACK 03 AUDIO
    TITLE "אדם זקן"
    PERFORMER "דני ליטני"
    REM COMPOSER ""
    INDEX 01 00:00:00
  TRACK 04 AUDIO
    TITLE "ולא היה בינינו אלא זוהר"
    PERFORMER "דני ליטני"
    REM COMPOSER ""
    INDEX 00 03:10:58
FILE "04 - ולא היה בינינו אלא זוהר.wav" WAVE
    INDEX 01 00:00:00
  TRACK 05 AUDIO
    TITLE "אמרת שתחזרי"
    PERFORMER "דני ליטני"
    REM COMPOSER ""
    INDEX 00 03:52:10
FILE "05 - אמרת שתחזרי.wav" WAVE
    INDEX 01 00:00:00
  TRACK 06 AUDIO
    TITLE "לא טוב היות האדם לבדו"
    PERFORMER "דני ליטני"
    REM COMPOSER ""
    INDEX 00 04:19:28
FILE "06 - לא טוב היות האדם לבדו.wav" WAVE
    INDEX 01 00:00:00
FILE "07 - יחס חם.wav" WAVE
  TRACK 07 AUDIO
    TITLE "יחס חם"
    PERFORMER "דני ליטני"
    REM COMPOSER ""
    INDEX 01 00:00:00
FILE "08 - היום בו נפלו השמיים.wav" WAVE
  TRACK 08 AUDIO
    TITLE "היום בו נפלו השמיים"
    PERFORMER "דני ליטני"
    REM COMPOSER ""
    INDEX 01 00:00:00
FILE "09 - יום נוסף.wav" WAVE
  TRACK 09 AUDIO
    TITLE "יום נוסף"
    PERFORMER "דני ליטני"
    REM COMPOSER ""
    INDEX 01 00:00:00
FILE "10 - אופליה.wav" WAVE
  TRACK 10 AUDIO
    TITLE "אופליה"
    PERFORMER "דני ליטני"
    REM COMPOSER ""
    INDEX 01 00:00:00
FILE "11 - בראש אחד.wav" WAVE
  TRACK 11 AUDIO
    TITLE "בראש אחד"
    PERFORMER "דני ליטני"
    REM COMPOSER ""
    INDEX 01 00:00:00
FILE "12 - ולא היה בינינו אלא זוהר - בהופעה.wav" WAVE
  TRACK 12 AUDIO
    TITLE "ולא היה בינינו אלא זוהר - בהופעה"
    PERFORMER "דני ליטני"
    REM COMPOSER ""
    INDEX 01 00:00:00
FILE "13 - יום נוסף - בהופעה.wav" WAVE
  TRACK 13 AUDIO
    TITLE "יום נוסף - בהופעה"
    PERFORMER "דני ליטני"
    REM COMPOSER ""
    INDEX 01 00:00:00
FILE "14 - ערב פתאומי.wav" WAVE
  TRACK 14 AUDIO
    TITLE "ערב פתאומי"
    PERFORMER "דני ליטני"
    REM COMPOSER ""
    INDEX 01 00:00:00
FILE "15 - אופליה.wav" WAVE
  TRACK 15 AUDIO
    TITLE "אופליה"
    PERFORMER "דני ליטני"
    REM COMPOSER ""
    INDEX 01 00:00:00
[/URL]
Код:
Exact Audio Copy V1.3 from 2. September 2016
EAC extraction logfile from 14. January 2017, 16:30
דני ליטני / יחס חם - דיסק 2
Used drive  : HL-DT-STDVDRAM GSA-T50N   Adapter: 1  ID: 0
Read mode               : Secure
Utilize accurate stream : Yes
Defeat audio cache      : Yes
Make use of C2 pointers : No
Read offset correction                      : 667
Overread into Lead-In and Lead-Out          : No
Fill up missing offset samples with silence : Yes
Delete leading and trailing silent blocks   : No
Null samples used in CRC calculations       : Yes
Used interface                              : Native Win32 interface for Win NT & 2000
Gap handling                                : Appended to previous track
Used output format              : User Defined Encoder
Selected bitrate                : 1024 kBit/s
Quality                         : High
Add ID3 tag                     : No
Command line compressor         : C:\Program Files\Exact Audio Copy\Flac\flac.exe
Additional command line options : -V -8 -T "Genre=%genre%" -T "Artist=%artist%" -T "Title=%title%" -T "Album=%albumtitle%" -T "Date=%year%" -T "Tracknumber=%tracknr%" %source% -o %dest%
TOC of the extracted CD
     Track |   Start  |  Length  | Start sector | End sector
    ---------------------------------------------------------
        1  |  0:00.00 |  3:11.29 |         0    |    14353
        2  |  3:11.29 |  4:40.31 |     14354    |    35384
        3  |  7:51.60 |  3:06.27 |     35385    |    49361
        4  | 10:58.12 |  3:28.50 |     49362    |    65011
        5  | 14:26.62 |  2:51.09 |     65012    |    77845
        6  | 17:17.71 |  3:20.13 |     77846    |    92858
        7  | 20:38.09 |  3:59.11 |     92859    |   110794
        8  | 24:37.20 |  3:17.42 |    110795    |   125611
        9  | 27:54.62 |  3:59.01 |    125612    |   143537
       10  | 31:53.63 |  3:02.70 |    143538    |   157257
       11  | 34:56.58 |  4:48.66 |    157258    |   178923
Track  1
     Filename C:\Musicgate's rips\דני ליטני - יחס חם - 1978\cd2\01 - יין קיץ.wav
     Pre-gap length  0:00:02.00
     Peak level 98.8 %
     Extraction speed 2.3 X
     Track quality 100.0 %
     Test CRC D1894FAB
     Copy CRC D1894FAB
     Accurately ripped (confidence 1)  [21EC6F95]  (AR v2)
     Copy OK
Track  2
     Filename C:\Musicgate's rips\דני ליטני - יחס חם - 1978\cd2\02 - נים לא נים.wav
     Peak level 88.1 %
     Extraction speed 2.6 X
     Track quality 100.0 %
     Test CRC 105B2912
     Copy CRC 105B2912
     Accurately ripped (confidence 1)  [CFB059C1]  (AR v2)
     Copy OK
Track  3
     Filename C:\Musicgate's rips\דני ליטני - יחס חם - 1978\cd2\03 - שלושה מתוך שלושה מיליונים.wav
     Pre-gap length  0:00:01.33
     Peak level 98.8 %
     Extraction speed 2.7 X
     Track quality 100.0 %
     Test CRC 818A9599
     Copy CRC 818A9599
     Accurately ripped (confidence 1)  [273FF048]  (AR v2)
     Copy OK
Track  4
     Filename C:\Musicgate's rips\דני ליטני - יחס חם - 1978\cd2\04 - דלילה.wav
     Pre-gap length  0:00:01.31
     Peak level 93.3 %
     Extraction speed 2.9 X
     Track quality 100.0 %
     Test CRC 75B5641B
     Copy CRC 75B5641B
     Accurately ripped (confidence 1)  [DACD5F9C]  (AR v2)
     Copy OK
Track  5
     Filename C:\Musicgate's rips\דני ליטני - יחס חם - 1978\cd2\05 - סמטת התותים.wav
     Pre-gap length  0:00:00.61
     Peak level 93.3 %
     Extraction speed 3.0 X
     Track quality 100.0 %
     Test CRC 48EE28F1
     Copy CRC 48EE28F1
     Accurately ripped (confidence 1)  [29B91CF4]  (AR v2)
     Copy OK
Track  6
     Filename C:\Musicgate's rips\דני ליטני - יחס חם - 1978\cd2\06 - סיפור של אהבה.wav
     Pre-gap length  0:00:00.64
     Peak level 98.8 %
     Extraction speed 2.7 X
     Track quality 99.9 %
     Test CRC 88D2268C
     Copy CRC 88D2268C
     Accurately ripped (confidence 1)  [B6FB0478]  (AR v2)
     Copy OK
Track  7
     Filename C:\Musicgate's rips\דני ליטני - יחס חם - 1978\cd2\07 - והיה כי תמצאו.wav
     Peak level 93.3 %
     Extraction speed 3.5 X
     Track quality 100.0 %
     Test CRC 4AB7A3D2
     Copy CRC 4AB7A3D2
     Accurately ripped (confidence 1)  [B0C1C756]  (AR v2)
     Copy OK
Track  8
     Filename C:\Musicgate's rips\דני ליטני - יחס חם - 1978\cd2\08 - היתה לי בחורה.wav
     Peak level 98.8 %
     Extraction speed 3.0 X
     Track quality 99.9 %
     Test CRC 0B471A4D
     Copy CRC 0B471A4D
     Accurately ripped (confidence 1)  [9977D2A9]  (AR v2)
     Copy OK
Track  9
     Filename C:\Musicgate's rips\דני ליטני - יחס חם - 1978\cd2\09 - ישראלה בת 25.wav
     Peak level 98.8 %
     Extraction speed 3.3 X
     Track quality 99.9 %
     Test CRC 49620BF1
     Copy CRC 49620BF1
     Accurately ripped (confidence 1)  [A968772B]  (AR v2)
     Copy OK
Track 10
     Filename C:\Musicgate's rips\דני ליטני - יחס חם - 1978\cd2\10 - מה יהיה בסופנו.wav
     Peak level 98.8 %
     Extraction speed 3.1 X
     Track quality 99.9 %
     Test CRC C53F4B0D
     Copy CRC C53F4B0D
     Accurately ripped (confidence 1)  [9D3395FF]  (AR v2)
     Copy OK
Track 11
     Filename C:\Musicgate's rips\דני ליטני - יחס חם - 1978\cd2\11 - לפנות בוקר.wav
     Peak level 93.3 %
     Extraction speed 3.7 X
     Track quality 99.9 %
     Test CRC 885D77D9
     Copy CRC 885D77D9
     Accurately ripped (confidence 1)  [6C1CEEC3]  (AR v2)
     Copy OK
All tracks accurately ripped
No errors occurred
End of status report
==== Log checksum 6A1A74730BF309A3200E2F27D674092008D3E99C88486BA7561E4FF781377E2E ====
Код:
REM GENRE "Rock Israeli"
REM DATE 1978
REM DISCID 9F09510B
REM COMMENT "ExactAudioCopy v1.3"
PERFORMER "דני ליטני"
TITLE "יחס חם - דיסק 2"
REM COMPOSER ""
FILE "01 - יין קיץ.wav" WAVE
  TRACK 01 AUDIO
    TITLE "יין קיץ"
    PERFORMER "דני ליטני"
    REM COMPOSER ""
    INDEX 01 00:00:00
FILE "02 - נים לא נים.wav" WAVE
  TRACK 02 AUDIO
    TITLE "נים לא נים"
    PERFORMER "דני ליטני"
    REM COMPOSER ""
    INDEX 01 00:00:00
  TRACK 03 AUDIO
    TITLE "שלושה מתוך שלושה מיליונים"
    PERFORMER "דני ליטני"
    REM COMPOSER ""
    INDEX 00 04:38:73
FILE "03 - שלושה מתוך שלושה מיליונים.wav" WAVE
    INDEX 01 00:00:00
  TRACK 04 AUDIO
    TITLE "דלילה"
    PERFORMER "דני ליטני"
    REM COMPOSER ""
    INDEX 00 03:04:71
FILE "04 - דלילה.wav" WAVE
    INDEX 01 00:00:00
  TRACK 05 AUDIO
    TITLE "סמטת התותים"
    PERFORMER "דני ליטני"
    REM COMPOSER ""
    INDEX 00 03:27:64
FILE "05 - סמטת התותים.wav" WAVE
    INDEX 01 00:00:00
  TRACK 06 AUDIO
    TITLE "סיפור של אהבה"
    PERFORMER "דני ליטני"
    REM COMPOSER ""
    INDEX 00 02:50:20
FILE "06 - סיפור של אהבה.wav" WAVE
    INDEX 01 00:00:00
FILE "07 - והיה כי תמצאו.wav" WAVE
  TRACK 07 AUDIO
    TITLE "והיה כי תמצאו"
    PERFORMER "דני ליטני"
    REM COMPOSER ""
    INDEX 01 00:00:00
FILE "08 - היתה לי בחורה.wav" WAVE
  TRACK 08 AUDIO
    TITLE "היתה לי בחורה"
    PERFORMER "דני ליטני"
    REM COMPOSER ""
    INDEX 01 00:00:00
FILE "09 - ישראלה בת 25.wav" WAVE
  TRACK 09 AUDIO
    TITLE "ישראלה בת 25"
    PERFORMER "דני ליטני"
    REM COMPOSER ""
    INDEX 01 00:00:00
FILE "10 - מה יהיה בסופנו.wav" WAVE
  TRACK 10 AUDIO
    TITLE "מה יהיה בסופנו"
    PERFORMER "דני ליטני"
    REM COMPOSER ""
    INDEX 01 00:00:00
FILE "11 - לפנות בוקר..wav" WAVE
  TRACK 11 AUDIO
    TITLE "לפנות בוקר"
    PERFORMER "דני ליטני"
    REM COMPOSER ""
    INDEX 01 00:00:00

Meir Israel - drums
Kobi Cohen - bass
Matty Caspy - arr.
Fred Field - guitar, mandolina, banjo, violin, rhodes piano, piano, harp
#777В 1977 Литани в коммерческих целях присоединился к мюзиклу "הבזאר הגדול" (Большой Базар), состоящему из песен французского композитора Мишеля Фугана, переведенных на иврит Йехудом Манором. Постановка с успехом прошла в Израиле в течение 8 месяцев, и в то же время Литани занимался своим первым сольным альбомом
Жанр: Pop-rock, Musical
Год издания оригинала: 1978 HaTaklit
Год переиздания: 1996
Страна - производитель диска: Israel
Издатель (лейбл): HaTaklit
Номер по каталогу: CD 222
Тип: Live
Продолжительность: 38:37
Трэклист:
01 - ערב טוב - Добрый вечер
02 - יום אחד גומרים - Однажды заканчиваем
03 - הטובים והרעים - Хорошие и плохие
04 - סיפור של אהבה - История любви
05 - איים בשמש - Угроза на солнце
06 - הנעורים (סולנית זזי שביט) - Молодежь
07 - שלום עולם שלנו - Шалом нашему миру
08 - לעוף כמו ציפור - Улететь, как птица
09 - שיר בלה לה - Песня Белла Ла
10 - אין די זמן (שיר ערש) - Не хватает времени
11 - אמור שלום לידידי - Скажи шалом моему другу
12 - עוד ישתנה הכל - Все еще изменится
13 - חג לי - У меня праздник
musical by Mishel Fugan
translated to hebrew by Yehud Manor
Код:
Exact Audio Copy V1.3 from 2. September 2016
EAC extraction logfile from 8. January 2017, 12:29
דני ליטני / הבזאר הגדול
Used drive  : HL-DT-STDVDRAM GH24NSB0   Adapter: 1  ID: 0
Read mode               : Secure
Utilize accurate stream : Yes
Defeat audio cache      : Yes
Make use of C2 pointers : No
Read offset correction                      : 6
Overread into Lead-In and Lead-Out          : No
Fill up missing offset samples with silence : Yes
Delete leading and trailing silent blocks   : No
Null samples used in CRC calculations       : Yes
Used interface                              : Native Win32 interface for Win NT & 2000
Gap handling                                : Appended to previous track
Used output format              : User Defined Encoder
Selected bitrate                : 1024 kBit/s
Quality                         : High
Add ID3 tag                     : No
Command line compressor         : C:\Program Files (x86)\Exact Audio Copy\FLAC\FLAC.EXE
Additional command line options : -V -8 -T "Genre=%genre%" -T "Artist=%artist%" -T "Title=%title%" -T "Album=%albumtitle%" -T "Date=%year%" -T "Tracknumber=%tracknr%" -T "Comment=%comment%" %source%
TOC of the extracted CD
     Track |   Start  |  Length  | Start sector | End sector
    ---------------------------------------------------------
        1  |  0:00.00 |  3:26.20 |         0    |    15469
        2  |  3:26.20 |  2:48.35 |     15470    |    28104
        3  |  6:14.55 |  2:01.70 |     28105    |    37249
        4  |  8:16.50 |  3:21.70 |     37250    |    52394
        5  | 11:38.45 |  3:03.65 |     52395    |    66184
        6  | 14:42.35 |  2:43.55 |     66185    |    78464
        7  | 17:26.15 |  3:02.05 |     78465    |    92119
        8  | 20:28.20 |  3:08.30 |     92120    |   106249
        9  | 23:36.50 |  3:17.55 |    106250    |   121079
       10  | 26:54.30 |  2:31.65 |    121080    |   132469
       11  | 29:26.20 |  2:36.55 |    132470    |   144224
       12  | 32:03.00 |  3:40.20 |    144225    |   160744
       13  | 35:43.20 |  2:55.65 |    160745    |   173934
Track  1
     Filename D:\Musicgate's rips\דני ליטני - הבזאר הגדול - 1978\01 - ערב טוב.wav
     Pre-gap length  0:00:02.00
     Peak level 100.0 %
     Extraction speed 1.0 X
     Track quality 100.0 %
     Test CRC A28B1D83
     Copy CRC A28B1D83
     Accurately ripped (confidence 1)  [5FAC846C]  (AR v1)
     Copy OK
Track  2
     Filename D:\Musicgate's rips\דני ליטני - הבזאר הגדול - 1978\02 - יום אחד גומרים.wav
     Pre-gap length  0:00:01.50
     Peak level 86.5 %
     Extraction speed 1.0 X
     Track quality 100.0 %
     Test CRC 6EC525F6
     Copy CRC 6EC525F6
     Accurately ripped (confidence 1)  [112D7A61]  (AR v1)
     Copy OK
Track  3
     Filename D:\Musicgate's rips\דני ליטני - הבזאר הגדול - 1978\03 - הטובים והרעים.wav
     Peak level 75.6 %
     Extraction speed 1.0 X
     Track quality 100.0 %
     Test CRC 5916BBBC
     Copy CRC 5916BBBC
     Accurately ripped (confidence 1)  [A232736B]  (AR v1)
     Copy OK
Track  4
     Filename D:\Musicgate's rips\דני ליטני - הבזאר הגדול - 1978\04 - סיפור של אהבה.wav
     Pre-gap length  0:00:01.10
     Peak level 100.0 %
     Extraction speed 1.2 X
     Track quality 100.0 %
     Test CRC D9F6A211
     Copy CRC D9F6A211
     Accurately ripped (confidence 1)  [0F1F82CF]  (AR v1)
     Copy OK
Track  5
     Filename D:\Musicgate's rips\דני ליטני - הבזאר הגדול - 1978\05 - איים בשמש.wav
     Peak level 81.5 %
     Extraction speed 1.2 X
     Track quality 100.0 %
     Test CRC 101C6D39
     Copy CRC 101C6D39
     Accurately ripped (confidence 1)  [8C39E6C9]  (AR v1)
     Copy OK
Track  6
     Filename D:\Musicgate's rips\דני ליטני - הבזאר הגדול - 1978\06 - הנעורים (סולנית זזי שביט).wav
     Pre-gap length  0:00:01.65
     Peak level 72.7 %
     Extraction speed 1.3 X
     Track quality 100.0 %
     Test CRC B1EC81E3
     Copy CRC B1EC81E3
     Accurately ripped (confidence 1)  [1C7961CD]  (AR v1)
     Copy OK
Track  7
     Filename D:\Musicgate's rips\דני ליטני - הבזאר הגדול - 1978\07 - שלום עולם שלנו.wav
     Pre-gap length  0:00:01.50
     Peak level 100.0 %
     Extraction speed 1.4 X
     Track quality 100.0 %
     Test CRC 5CABA1BA
     Copy CRC 5CABA1BA
     Accurately ripped (confidence 1)  [508FAF1B]  (AR v1)
     Copy OK
Track  8
     Filename D:\Musicgate's rips\דני ליטני - הבזאר הגדול - 1978\08 - לעוף כמו ציפור.wav
     Pre-gap length  0:00:02.30
     Peak level 83.6 %
     Extraction speed 1.5 X
     Track quality 100.0 %
     Test CRC 1FF8264B
     Copy CRC 1FF8264B
     Accurately ripped (confidence 1)  [C9FCE98E]  (AR v1)
     Copy OK
Track  9
     Filename D:\Musicgate's rips\דני ליטני - הבזאר הגדול - 1978\09 - שיר בלה לה.wav
     Pre-gap length  0:00:01.30
     Peak level 82.0 %
     Extraction speed 1.5 X
     Track quality 100.0 %
     Test CRC 19014917
     Copy CRC 19014917
     Accurately ripped (confidence 1)  [19B9074E]  (AR v1)
     Copy OK
Track 10
     Filename D:\Musicgate's rips\דני ליטני - הבזאר הגדול - 1978\10 - אין די זמן (שיר ערש).wav
     Pre-gap length  0:00:01.15
     Peak level 95.2 %
     Extraction speed 1.5 X
     Track quality 100.0 %
     Test CRC EF4EE005
     Copy CRC EF4EE005
     Accurately ripped (confidence 1)  [AFF2A585]  (AR v1)
     Copy OK
Track 11
     Filename D:\Musicgate's rips\דני ליטני - הבזאר הגדול - 1978\11 - אמור שלום לידידי.wav
     Pre-gap length  0:00:01.70
     Peak level 72.1 %
     Extraction speed 1.5 X
     Track quality 100.0 %
     Test CRC F9DA3A6F
     Copy CRC F9DA3A6F
     Accurately ripped (confidence 1)  [AE7833D2]  (AR v1)
     Copy OK
Track 12
     Filename D:\Musicgate's rips\דני ליטני - הבזאר הגדול - 1978\12 - עוד ישתנה הכל.wav
     Pre-gap length  0:00:02.40
     Peak level 70.1 %
     Extraction speed 1.7 X
     Track quality 100.0 %
     Test CRC 2914A35B
     Copy CRC 2914A35B
     Accurately ripped (confidence 1)  [D6C296E2]  (AR v1)
     Copy OK
Track 13
     Filename D:\Musicgate's rips\דני ליטני - הבזאר הגדול - 1978\13 - חג לי.wav
     Pre-gap length  0:00:01.55
     Peak level 71.3 %
     Extraction speed 1.7 X
     Track quality 100.0 %
     Test CRC E92030DA
     Copy CRC E92030DA
     Accurately ripped (confidence 1)  [2A30B971]  (AR v1)
     Copy OK
All tracks accurately ripped
No errors occurred
End of status report
==== Log checksum C9B87E9895882FF1AB9A20687272C66178B0FC85CB7F25FA459B3F9F950034DF ====
Код:
REM GENRE Musical
REM DATE 1978
REM DISCID AE090F0D
REM COMMENT "ExactAudioCopy v1.3"
PERFORMER "דני ליטני"
TITLE "הבזאר הגדול"
REM COMPOSER ""
FILE "01 - ערב טוב.wav" WAVE
  TRACK 01 AUDIO
    TITLE "ערב טוב"
    PERFORMER "דני ליטני"
    REM COMPOSER ""
    FLAGS DCP
    INDEX 01 00:00:00
  TRACK 02 AUDIO
    TITLE "יום אחד גומרים"
    PERFORMER "דני ליטני"
    REM COMPOSER ""
    FLAGS DCP
    INDEX 00 03:24:45
FILE "02 - יום אחד גומרים.wav" WAVE
    INDEX 01 00:00:00
FILE "03 - הטובים והרעים.wav" WAVE
  TRACK 03 AUDIO
    TITLE "הטובים והרעים"
    PERFORMER "דני ליטני"
    REM COMPOSER ""
    FLAGS DCP
    INDEX 01 00:00:00
  TRACK 04 AUDIO
    TITLE "סיפור של אהבה"
    PERFORMER "דני ליטני"
    REM COMPOSER ""
    FLAGS DCP
    INDEX 00 02:00:60
FILE "04 - סיפור של אהבה.wav" WAVE
    INDEX 01 00:00:00
FILE "05 - איים בשמש.wav" WAVE
  TRACK 05 AUDIO
    TITLE "איים בשמש"
    PERFORMER "דני ליטני"
    REM COMPOSER ""
    FLAGS DCP
    INDEX 01 00:00:00
  TRACK 06 AUDIO
    TITLE "הנעורים (סולנית זזי שביט)"
    PERFORMER "דני ליטני"
    REM COMPOSER ""
    FLAGS DCP
    INDEX 00 03:02:00
FILE "06 - הנעורים (סולנית זזי שביט).wav" WAVE
    INDEX 01 00:00:00
  TRACK 07 AUDIO
    TITLE "שלום עולם שלנו"
    PERFORMER "דני ליטני"
    REM COMPOSER ""
    FLAGS DCP
    INDEX 00 02:42:05
FILE "07 - שלום עולם שלנו.wav" WAVE
    INDEX 01 00:00:00
  TRACK 08 AUDIO
    TITLE "לעוף כמו ציפור"
    PERFORMER "דני ליטני"
    REM COMPOSER ""
    FLAGS DCP
    INDEX 00 02:59:50
FILE "08 - לעוף כמו ציפור.wav" WAVE
    INDEX 01 00:00:00
  TRACK 09 AUDIO
    TITLE "שיר בלה לה"
    PERFORMER "דני ליטני"
    REM COMPOSER ""
    FLAGS DCP
    INDEX 00 03:07:00
FILE "09 - שיר בלה לה.wav" WAVE
    INDEX 01 00:00:00
  TRACK 10 AUDIO
    TITLE "אין די זמן (שיר ערש)"
    PERFORMER "דני ליטני"
    REM COMPOSER ""
    FLAGS DCP
    INDEX 00 03:16:40
FILE "10 - אין די זמן (שיר ערש).wav" WAVE
    INDEX 01 00:00:00
  TRACK 11 AUDIO
    TITLE "אמור שלום לידידי"
    PERFORMER "דני ליטני"
    REM COMPOSER ""
    FLAGS DCP
    INDEX 00 02:29:70
FILE "11 - אמור שלום לידידי.wav" WAVE
    INDEX 01 00:00:00
  TRACK 12 AUDIO
    TITLE "עוד ישתנה הכל"
    PERFORMER "דני ליטני"
    REM COMPOSER ""
    FLAGS DCP
    INDEX 00 02:34:15
FILE "12 - עוד ישתנה הכל.wav" WAVE
    INDEX 01 00:00:00
  TRACK 13 AUDIO
    TITLE "חג לי"
    PERFORMER "דני ליטני"
    REM COMPOSER ""
    FLAGS DCP
    INDEX 00 03:38:40
FILE "13 - חג לי.wav" WAVE
    INDEX 01 00:00:00

#777В 1980, на волне расцвета Израильского рока вышел его альбом с группой "שמיים" (Небеса), состоящей из ведущих инструменталистов тех лет и не имеющей самостоятельных альбомов, причем с музыкой Литани. Посему - он вполне уместен в этой дискографии
Жанр: Funk-rock, soft-rock, blues-rock
Год издания оригинала: 1980
Год переиздания: 1993
Страна - производитель диска: Israel
Издатель (лейбл): NMC
Номер по каталогу: NMC 84556-2
Тип:
Продолжительность:
Трэклист:
1. אני עומד לי על הגשר - Стою себе на мосту (Йонатан Геффен - Дани Литани)
2. טוב לי ככה - Хорошо мне так (Йонатан Геффен - Дани Литани)
3. רוח דרומית - Южный ветер (Алона Турэль)
4. גשם כבד - Ливень (Боб Дилан)
5. סבא שלי - Мой дедушка (Йонатан Геффен - Дани Литани)
6. לפנות בוקר - Перед утром (Меир Визенитль - Дани Литани)
7. אכזיב 76 (שתי נוצצות) - Разочарование 76 (Меир Ариэль - Дани Литани)
Код:
Exact Audio Copy V1.3 from 2. September 2016
EAC extraction logfile from 22. December 2016, 8:00
שמיים עם דני ליטני / שמיים עם דני ליטני
Used drive  : HL-DT-STDVDRAM GH24NSB0   Adapter: 1  ID: 0
Read mode               : Secure
Utilize accurate stream : Yes
Defeat audio cache      : Yes
Make use of C2 pointers : No
Read offset correction                      : 6
Overread into Lead-In and Lead-Out          : No
Fill up missing offset samples with silence : Yes
Delete leading and trailing silent blocks   : No
Null samples used in CRC calculations       : Yes
Used interface                              : Native Win32 interface for Win NT & 2000
Gap handling                                : Appended to previous track
Used output format              : User Defined Encoder
Selected bitrate                : 1024 kBit/s
Quality                         : High
Add ID3 tag                     : No
Command line compressor         : C:\Program Files (x86)\Exact Audio Copy\FLAC\FLAC.EXE
Additional command line options : -V -8 -T "ARTIST=%artist%" -T "TITLE=%title%" -T "ALBUM=%albumtitle%" -T "DATE=%year%" -T "TRACKNUMBER=%tracknr%" -T "GENRE=%genre%" -T "COMMENT=ripped by Musicgate" %source% -o %dest%
TOC of the extracted CD
     Track |   Start  |  Length  | Start sector | End sector
    ---------------------------------------------------------
        1  |  0:00.00 |  6:31.25 |         0    |    29349
        2  |  6:31.25 |  7:24.63 |     29350    |    62712
        3  | 13:56.13 |  9:58.67 |     62713    |   107629
        4  | 23:55.05 |  6:40.00 |    107630    |   137629
        5  | 30:35.05 |  6:43.45 |    137630    |   167899
        6  | 37:18.50 |  4:51.23 |    167900    |   189747
        7  | 42:09.73 |  5:42.02 |    189748    |   215399
Track  1
     Filename D:\Musicgate's rips\שמיים עם דני ליטני - שמיים עם דני ליטני - 1980\01 - אני עומד לי על הגשר.wav
     Pre-gap length  0:00:02.00
     Peak level 98.9 %
     Extraction speed 1.1 X
     Track quality 100.0 %
     Test CRC 6DF30CF6
     Copy CRC 6DF30CF6
     Accurately ripped (confidence 1)  [0AF3F7C9]  (AR v1)
     Copy OK
Track  2
     Filename D:\Musicgate's rips\שמיים עם דני ליטני - שמיים עם דני ליטני - 1980\02 - טוב לי ככה.wav
     Pre-gap length  0:00:03.00
     Peak level 99.0 %
     Extraction speed 1.3 X
     Track quality 100.0 %
     Test CRC 499DC6ED
     Copy CRC 499DC6ED
     Accurately ripped (confidence 1)  [96CC2A78]  (AR v1)
     Copy OK
Track  3
     Filename D:\Musicgate's rips\שמיים עם דני ליטני - שמיים עם דני ליטני - 1980\03 - רוח דרומית.wav
     Pre-gap length  0:00:02.00
     Peak level 92.6 %
     Extraction speed 1.5 X
     Track quality 99.9 %
     Test CRC 03515202
     Copy CRC 03515202
     Accurately ripped (confidence 1)  [41F79C0D]  (AR v1)
     Copy OK
Track  4
     Filename D:\Musicgate's rips\שמיים עם דני ליטני - שמיים עם דני ליטני - 1980\04 - גשם כבד.wav
     Pre-gap length  0:00:04.00
     Peak level 95.5 %
     Extraction speed 1.7 X
     Track quality 100.0 %
     Test CRC 9B646B9B
     Copy CRC 9B646B9B
     Accurately ripped (confidence 1)  [73E482CD]  (AR v1)
     Copy OK
Track  5
     Filename D:\Musicgate's rips\שמיים עם דני ליטני - שמיים עם דני ליטני - 1980\05 - סבא שלי.wav
     Pre-gap length  0:00:03.00
     Peak level 99.0 %
     Extraction speed 1.9 X
     Track quality 100.0 %
     Test CRC 028FEDAA
     Copy CRC 028FEDAA
     Accurately ripped (confidence 1)  [86FB66C8]  (AR v1)
     Copy OK
Track  6
     Filename D:\Musicgate's rips\שמיים עם דני ליטני - שמיים עם דני ליטני - 1980\06 - לפנות בוקר.wav
     Pre-gap length  0:00:03.00
     Peak level 99.0 %
     Extraction speed 1.9 X
     Track quality 100.0 %
     Test CRC 100C367A
     Copy CRC 100C367A
     Accurately ripped (confidence 1)  [4EEB4D5D]  (AR v1)
     Copy OK
Track  7
     Filename D:\Musicgate's rips\שמיים עם דני ליטני - שמיים עם דני ליטני - 1980\07 - אכזיב 76.wav
     Pre-gap length  0:00:02.00
     Peak level 96.1 %
     Extraction speed 2.0 X
     Track quality 100.0 %
     Test CRC 0752A648
     Copy CRC 0752A648
     Accurately ripped (confidence 1)  [A1F542FE]  (AR v1)
     Copy OK
All tracks accurately ripped
No errors occurred
End of status report
==== Log checksum DC98F45224B0A28E106E4BFF442E82FA3373AF2D96FB9B6B9E19A1611AE5DC84 ====
Код:
REM GENRE "Rock Israeli"
REM DATE 1980
REM DISCID 590B3807
REM COMMENT "ExactAudioCopy v1.3"
PERFORMER "שמיים עם דני ליטני"
TITLE "שמיים עם דני ליטני"
REM COMPOSER ""
FILE "01 - אני עומד לי על הגשר.wav" WAVE
  TRACK 01 AUDIO
    TITLE "אני עומד לי על הגשר"
    PERFORMER "שמיים עם דני ליטני"
    INDEX 01 00:00:00
  TRACK 02 AUDIO
    TITLE "טוב לי ככה"
    PERFORMER "שמיים עם דני ליטני"
    INDEX 00 06:28:25
FILE "02 - טוב לי ככה.wav" WAVE
    INDEX 01 00:00:00
  TRACK 03 AUDIO
    TITLE "רוח דרומית"
    PERFORMER "שמיים עם דני ליטני"
    INDEX 00 07:22:63
FILE "03 - רוח דרומית.wav" WAVE
    INDEX 01 00:00:00
  TRACK 04 AUDIO
    TITLE "גשם כבד"
    PERFORMER "שמיים עם דני ליטני"
    INDEX 00 09:54:67
FILE "04 - גשם כבד.wav" WAVE
    INDEX 01 00:00:00
  TRACK 05 AUDIO
    TITLE "סבא שלי"
    PERFORMER "שמיים עם דני ליטני"
    INDEX 00 06:37:00
FILE "05 - סבא שלי.wav" WAVE
    INDEX 01 00:00:00
  TRACK 06 AUDIO
    TITLE "לפנות בוקר"
    PERFORMER "שמיים עם דני ליטני"
    INDEX 00 06:40:45
FILE "06 - לפנות בוקר.wav" WAVE
    INDEX 01 00:00:00
  TRACK 07 AUDIO
    TITLE "אכזיב 76"
    PERFORMER "שמיים עם דני ליטני"
    INDEX 00 04:49:23
FILE "07 - אכזיב 76.wav" WAVE
    INDEX 01 00:00:00

Alona Turel - keyboards, arrangement
Ihud Inger - bass
Lui Lahav - arrangement, producing
Riki Manor - Vocal. Percussion
Haim Kariv - Guitar
Arele Kaminski - drums
#777Второй сольный альбом Литани, вышедший с перерывом в 14 лет после первого, в сотрудничестве с Эдди Реннертом, создавшим блюз-роковую атмосферу. Большинство песен написал Литани.
Жанр: Rock, blues-rock
Дата записи: Gal Kol Studios (10.1991 - 03.1992)
Год издания: 1992
Страна - производитель диска: Israel
Издатель (лейбл): NMC
Номер по каталогу: 1022
Продолжительность: 54:18
Трэклист:
1. תקופת החיץ - Переходный период (Меир Ариэль - Дани Литани)
2. סיפור בדלת - История в дверях (Меир Ариэль - Дани Литани)
3. צבע אחר - Другой цвет (Меир Ариэль - Дани Литани)
4. הלילה צעיר אתה כבר לא - Ночь молодая/ а ты - уже нет (Йонатан Геффен - Дани Литани)
5. זאב בודד - Одинокий волк (Меир Ариэль - Шалом Ханох)
6. לפתח הר הגעש - К кратеру вулкана (Дан Альмог - Дани Литани)
7. באולינג בלוז - Боулинг блюз (Дани Литани - Эдди Реннерт)
8. גב למטרה - Наружная сторона цели (Меир Ариэль - Дани Литани)
9. הרי את מותרת לכל אדם - Ведь ты доступна каждому (Давид Авидан - Дани Литани)
10. החברה הטובים - Хорошие друзья (Меир Ариэль - Дани Литани)
Код:
Exact Audio Copy V1.3 from 2. September 2016
EAC extraction logfile from 25. December 2016, 8:30
דני ליטני / תקופת החיץ
Used drive  : HL-DT-STDVDRAM GH24NSB0   Adapter: 1  ID: 0
Read mode               : Secure
Utilize accurate stream : Yes
Defeat audio cache      : Yes
Make use of C2 pointers : No
Read offset correction                      : 6
Overread into Lead-In and Lead-Out          : No
Fill up missing offset samples with silence : Yes
Delete leading and trailing silent blocks   : No
Null samples used in CRC calculations       : Yes
Used interface                              : Native Win32 interface for Win NT & 2000
Gap handling                                : Appended to previous track
Used output format              : User Defined Encoder
Selected bitrate                : 1024 kBit/s
Quality                         : High
Add ID3 tag                     : No
Command line compressor         : C:\Program Files (x86)\Exact Audio Copy\FLAC\FLAC.EXE
Additional command line options : -V -8 -T "ARTIST=%artist%" -T "TITLE=%title%" -T "ALBUM=%albumtitle%" -T "DATE=%year%" -T "TRACKNUMBER=%tracknr%" -T "GENRE=%genre%" -T "COMMENT=ripped by Musicgate" %source% -o %dest%
TOC of the extracted CD
     Track |   Start  |  Length  | Start sector | End sector
    ---------------------------------------------------------
        1  |  0:00.00 |  4:39.62 |         0    |    20986
        2  |  4:39.62 |  5:49.00 |     20987    |    47161
        3  | 10:28.62 |  4:26.00 |     47162    |    67111
        4  | 14:54.62 |  5:36.00 |     67112    |    92311
        5  | 20:30.62 |  5:37.00 |     92312    |   117586
        6  | 26:07.62 |  6:58.00 |    117587    |   148936
        7  | 33:05.62 |  4:33.00 |    148937    |   169411
        8  | 37:38.62 |  5:14.00 |    169412    |   192961
        9  | 42:52.62 |  4:21.00 |    192962    |   212536
       10  | 47:13.62 |  7:06.13 |    212537    |   244499
Track  1
     Filename D:\Musicgate's rips\דני ליטני - תקופת החיץ - 1992\01 - תקופת החיץ.wav
     Pre-gap length  0:00:02.00
     Peak level 98.9 %
     Extraction speed 0.9 X
     Track quality 99.9 %
     Test CRC D2EB8089
     Copy CRC D2EB8089
     Accurately ripped (confidence 1)  [1D31F64A]  (AR v2)
     Copy OK
Track  2
     Filename D:\Musicgate's rips\דני ליטני - תקופת החיץ - 1992\02 - סיפור בדלת.wav
     Peak level 94.8 %
     Extraction speed 1.2 X
     Track quality 100.0 %
     Test CRC D844076D
     Copy CRC D844076D
     Accurately ripped (confidence 1)  [AB7634A1]  (AR v2)
     Copy OK
Track  3
     Filename D:\Musicgate's rips\דני ליטני - תקופת החיץ - 1992\03 - צבע אחר.wav
     Peak level 75.6 %
     Extraction speed 1.3 X
     Track quality 100.0 %
     Test CRC B5374196
     Copy CRC B5374196
     Accurately ripped (confidence 1)  [470149D0]  (AR v2)
     Copy OK
Track  4
     Filename D:\Musicgate's rips\דני ליטני - תקופת החיץ - 1992\04 - הלילה צעיר אתה כבר לא.wav
     Peak level 98.9 %
     Extraction speed 1.3 X
     Track quality 99.9 %
     Test CRC 4EF1BC78
     Copy CRC 4EF1BC78
     Accurately ripped (confidence 1)  [40042FBE]  (AR v2)
     Copy OK
Track  5
     Filename D:\Musicgate's rips\דני ליטני - תקופת החיץ - 1992\05 - זאב בודד.wav
     Pre-gap length  0:00:00.62
     Peak level 79.8 %
     Extraction speed 1.5 X
     Track quality 99.9 %
     Test CRC 83E171AB
     Copy CRC 83E171AB
     Accurately ripped (confidence 1)  [622908BD]  (AR v2)
     Copy OK
Track  6
     Filename D:\Musicgate's rips\דני ליטני - תקופת החיץ - 1992\06 - לפתח הר הגעש.wav
     Peak level 98.9 %
     Extraction speed 1.6 X
     Track quality 99.9 %
     Test CRC A125F17C
     Copy CRC A125F17C
     Accurately ripped (confidence 1)  [ABF9C44B]  (AR v2)
     Copy OK
Track  7
     Filename D:\Musicgate's rips\דני ליטני - תקופת החיץ - 1992\07 - באולינג בלוז.wav
     Pre-gap length  0:00:00.62
     Peak level 93.7 %
     Extraction speed 1.8 X
     Track quality 100.0 %
     Test CRC D7C4507D
     Copy CRC D7C4507D
     Accurately ripped (confidence 1)  [C25B9CD0]  (AR v2)
     Copy OK
Track  8
     Filename D:\Musicgate's rips\דני ליטני - תקופת החיץ - 1992\08 - גב למטרה.wav
     Pre-gap length  0:00:00.62
     Peak level 91.5 %
     Extraction speed 1.9 X
     Track quality 100.0 %
     Test CRC 09C5528C
     Copy CRC 09C5528C
     Accurately ripped (confidence 1)  [9D6724CB]  (AR v2)
     Copy OK
Track  9
     Filename D:\Musicgate's rips\דני ליטני - תקופת החיץ - 1992\09 - הרי את מותרת לכל אדם.wav
     Peak level 99.0 %
     Extraction speed 2.0 X
     Track quality 100.0 %
     Test CRC A3EA9194
     Copy CRC A3EA9194
     Accurately ripped (confidence 1)  [10A1B3DC]  (AR v2)
     Copy OK
Track 10
     Filename D:\Musicgate's rips\דני ליטני - תקופת החיץ - 1992\10 - החברה הטובים.wav
     Pre-gap length  0:00:00.62
     Peak level 98.9 %
     Extraction speed 2.1 X
     Track quality 100.0 %
     Test CRC 2114FB87
     Copy CRC 2114FB87
     Accurately ripped (confidence 1)  [91494D4C]  (AR v2)
     Copy OK
All tracks accurately ripped
No errors occurred
End of status report
==== Log checksum 47827EF2242127206CA7E36A13D56F2938F2654970FDFB21260C72C932E84F42 ====
Код:
REM GENRE Israeli
REM DATE 1992
REM DISCID 910CBC0A
REM COMMENT "ExactAudioCopy v1.3"
PERFORMER "דני ליטני"
TITLE "תקופת החיץ"
REM COMPOSER ""
FILE "01 - תקופת החיץ.wav" WAVE
  TRACK 01 AUDIO
    TITLE "תקופת החיץ"
    PERFORMER "דני ליטני"
    REM COMPOSER ""
    INDEX 01 00:00:00
FILE "02 - סיפור בדלת.wav" WAVE
  TRACK 02 AUDIO
    TITLE "סיפור בדלת"
    PERFORMER "דני ליטני"
    REM COMPOSER ""
    INDEX 01 00:00:00
FILE "03 - צבע אחר.wav" WAVE
  TRACK 03 AUDIO
    TITLE "צבע אחר"
    PERFORMER "דני ליטני"
    REM COMPOSER ""
    INDEX 01 00:00:00
FILE "04 - הלילה צעיר אתה כבר לא.wav" WAVE
  TRACK 04 AUDIO
    TITLE "הלילה צעיר אתה כבר לא"
    PERFORMER "דני ליטני"
    REM COMPOSER ""
    INDEX 01 00:00:00
  TRACK 05 AUDIO
    TITLE "זאב בודד"
    PERFORMER "דני ליטני"
    REM COMPOSER ""
    INDEX 00 05:35:13
FILE "05 - זאב בודד.wav" WAVE
    INDEX 01 00:00:00
FILE "06 - לפתח הר הגעש.wav" WAVE
  TRACK 06 AUDIO
    TITLE "לפתח הר הגעש"
    PERFORMER "דני ליטני"
    REM COMPOSER ""
    INDEX 01 00:00:00
  TRACK 07 AUDIO
    TITLE "באולינג בלוז"
    PERFORMER "דני ליטני"
    REM COMPOSER ""
    INDEX 00 06:57:13
FILE "07 - באולינג בלוז.wav" WAVE
    INDEX 01 00:00:00
  TRACK 08 AUDIO
    TITLE "גב למטרה"
    PERFORMER "דני ליטני"
    REM COMPOSER ""
    INDEX 00 04:32:13
FILE "08 - גב למטרה.wav" WAVE
    INDEX 01 00:00:00
FILE "09 - הרי את מותרת לכל אדם.wav" WAVE
  TRACK 09 AUDIO
    TITLE "הרי את מותרת לכל אדם"
    PERFORMER "דני ליטני"
    REM COMPOSER ""
    INDEX 01 00:00:00
  TRACK 10 AUDIO
    TITLE "החברה הטובים"
    PERFORMER "דני ליטני"
    REM COMPOSER ""
    INDEX 00 04:20:13
FILE "10 - החברה הטובים.wav" WAVE
    INDEX 01 00:00:00

Gary Ekshtein - Guitar, background vocal
Eddy Rennert - keyboards. Producer
Jean-Paul Zimbris - drums, percussion
Dany Basan, Gany Tamir - background vocal
Dani Litany - voice, guitar
Naor Dayan - guitars
Sassy Mizrachy - bass
Правила, инструкции, FAQ!!!
Торрент  Добавлен [26 мар 2019, 19:42] Скачать торрент Магнет ссылка
Скачать торрент
[ Размер 31.02 КБ / Просмотров 0 ]

Статус
Проверен 
 
Размер  2.61 ГБ
Приватный: Нет (DHT включён)
.torrent скачан  0
 


     Отправить личное сообщение
   
Страница 1 из 1
Показать сообщения за:  Поле сортировки  
Начать новую тему Ответить на тему


Сейчас этот форум просматривают: нет зарегистрированных пользователей и гости: 0


Вы не можете начинать темы
Вы не можете отвечать на сообщения
Вы не можете редактировать свои сообщения
Вы не можете удалять свои сообщения
Вы не можете добавлять вложения

Перейти:  
cron