Начать новую тему Ответить на тему
Статистика раздачи
Размер: 2.95 ГБ | Добавлен: 26 мар 2019, 18:41 | Скачали: 0
Сидеров: 16  [0 байт/сек]    Личеров: 5  [0 байт/сек]
Пред. тема | След. тема 

Автор
Сообщение

СообщениеДобавлено: 26 мар 2019, 18:41 

Ответить с цитатой 


John Mayer / The Discography / Дискография (6 Studio+1 Live Albums)


6 Studio Albums, 1 Live Album, 7CD
Жанр: Pop Rock, Blues Rock, Folk Roc, Country Rock, Southern Rock, Americana Страна-производитель дисков: USA, EU, France, Poland
Года издания: 2001-2013 Издатель (лейбл): Columbia, Sony Music Entertainment Страна: USA
Аудиокодек: FLAC (*.flac) Тип рипа: image+.cue Битрейт аудио: lossless
Продолжительность: 06:12:57 Источник (релизер): Собственный Наличие сканов в содержимом раздачи: да (JPG/PNG, 600dpi, 696Mb)
Wikipedia | Official page
John Clayton Mayer – американский гитарист, автор исполнитель песен и продюсер, который за свою не долгую карьеру (с 1998 года) был номинирован 19 раз на различные музыкальные премии, в том числе 7 раз становился победителем. Кроме этого, Джон очень не плохо показал себя на первых трёх фестивалях Эрик Клэптона Crossroads Guitar Festival будем надеяться и на четвёртом 2013 года не подвел.
В состав его дискографии включены все 6-ть студийных альбомов и один концертный альбом Try!, выпущенный в составе трио Jonh Mayer Trio совместно с Steve Jordan и Pino Palladino. В основе раздачи использованы:
- бокс сет 2013 года с первыми 4-мя студийными и одним концертным альбомами 2013 - John Mayer (BoxSet, 5CD, EU, France, Sony, 88883708872),
- два издания со студийными альбомами 2012 - Born and Raised и 2013 - John Mayer - Paradise Valley.
В описании раздачи - релизы расположены по видам альбомов и датам выхода.
В составе раздачи – релизы расположены так как есть.
Studio Albums
Треклист:
01. No Such Thing - 3:52
02. Why Georgia - 4:29
03. My Stupid Mouth - 3:45
04. Your Body Is A Wonderland - 4:10
05. Neon - 4:22
06. City Love - 4:00
07. 83 - 4:51
08. 3x5 - 4:51
09. Love Song For No One - 3:21
10. Back To You - 4:02
11. Great Indoors - 3:36
12. Not Myself - 3:41
13. St. Patrick's Day - 5:26
Bonus Tracks :
14. Lenny - 2:11
15. The Wind Cries Mary (Live At The X-Lounge) - 3:38
Код:
Exact Audio Copy V1.0 beta 3 from 29. August 2011
EAC extraction logfile from 15. October 2013, 10:08
John Mayer / Room For Squares
Used drive  : ATAPI   iHAS124   B   Adapter: 2  ID: 0
Read mode               : Secure
Utilize accurate stream : Yes
Defeat audio cache      : Yes
Make use of C2 pointers : No
Read offset correction                      : 6
Overread into Lead-In and Lead-Out          : No
Fill up missing offset samples with silence : Yes
Delete leading and trailing silent blocks   : No
Null samples used in CRC calculations       : Yes
Used interface                              : Native Win32 interface for Win NT & 2000
Used output format              : User Defined Encoder
Selected bitrate                : 1024 kBit/s
Quality                         : High
Add ID3 tag                     : No
Command line compressor         : C:\Program Files (x86)\Exact Audio Copy\FLAC\FLAC.EXE
Additional command line options : -8 -V -T "ARTIST=%artist%" -T "TITLE=%title%" -T "ALBUM=%albumtitle%" -T "DATE=%year%" -T "TRACKNUMBER=%tracknr%" -T "GENRE=%genre%" -T "PERFORMER=%albuminterpret%" -T "COMPOSER=%composer%" %haslyrics%--tag-from-file=LYRICS="%lyricsfile%"%haslyrics% -T "ALBUMARTIST=%albumartist%" -T "DISCNUMBER=%cdnumber%" -T "TOTALDISCS=%totalcds%" -T "TOTALTRACKS=%numtracks%" -T "COMMENT=%comment%" %source% -o %dest%
TOC of the extracted CD
     Track |   Start  |  Length  | Start sector | End sector
    ---------------------------------------------------------
        1  |  0:00.00 |  3:51.51 |         0    |    17375
        2  |  3:51.51 |  4:28.61 |     17376    |    37536
        3  |  8:20.37 |  3:45.08 |     37537    |    54419
        4  | 12:05.45 |  4:09.40 |     54420    |    73134
        5  | 16:15.10 |  4:22.06 |     73135    |    92790
        6  | 20:37.16 |  4:00.14 |     92791    |   110804
        7  | 24:37.30 |  4:50.71 |    110805    |   132625
        8  | 29:28.26 |  4:50.40 |    132626    |   154415
        9  | 34:18.66 |  3:21.32 |    154416    |   169522
       10  | 37:40.23 |  4:01.57 |    169523    |   187654
       11  | 41:42.05 |  3:36.18 |    187655    |   203872
       12  | 45:18.23 |  3:40.42 |    203873    |   220414
       13  | 48:58.65 |  5:26.00 |    220415    |   244864
       14  | 54:24.65 |  2:10.39 |    244865    |   254653
       15  | 56:35.29 |  3:38.29 |    254654    |   271032
Range status and errors
Selected range
     Filename G:\CD\John Mayer - Room For Squares.wav
     Peak level 100.0 %
     Extraction speed 6.4 X
     Range quality 100.0 %
     Test CRC 97E296FF
     Copy CRC 97E296FF
     Copy OK
No errors occurred
AccurateRip summary
Track  1  cannot be verified as accurate (confidence 2)  [6596F4FE], AccurateRip returned [28D3A3C2]  (AR v2)
Track  2  cannot be verified as accurate (confidence 2)  [CCFBF21F], AccurateRip returned [99A9019C]  (AR v2)
Track  3  cannot be verified as accurate (confidence 2)  [B76EC0DE], AccurateRip returned [B31971A6]  (AR v2)
Track  4  cannot be verified as accurate (confidence 2)  [41B6197A], AccurateRip returned [68DBA9FC]  (AR v2)
Track  5  cannot be verified as accurate (confidence 2)  [EC401069], AccurateRip returned [F403535A]  (AR v2)
Track  6  cannot be verified as accurate (confidence 2)  [40FD1C7F], AccurateRip returned [6C3B6CF1]  (AR v2)
Track  7  cannot be verified as accurate (confidence 2)  [BC7ACC8D], AccurateRip returned [6E56805E]  (AR v2)
Track  8  cannot be verified as accurate (confidence 2)  [6B6E1E7F], AccurateRip returned [7B973BCC]  (AR v2)
Track  9  cannot be verified as accurate (confidence 2)  [DB820F56], AccurateRip returned [251F09FB]  (AR v2)
Track 10  cannot be verified as accurate (confidence 2)  [360FF70D], AccurateRip returned [E9C5DF6A]  (AR v2)
Track 11  cannot be verified as accurate (confidence 2)  [E903FC46], AccurateRip returned [48E47DF9]  (AR v2)
Track 12  cannot be verified as accurate (confidence 2)  [6286098B], AccurateRip returned [E68198E1]  (AR v2)
Track 13  cannot be verified as accurate (confidence 2)  [3FA61A0C], AccurateRip returned [E4708501]  (AR v2)
Track 14  cannot be verified as accurate (confidence 2)  [25B6928A], AccurateRip returned [A2454C66]  (AR v2)
Track 15  cannot be verified as accurate (confidence 2)  [2034D075], AccurateRip returned [DB2F9D6A]  (AR v2)
No tracks could be verified as accurate
You may have a different pressing from the one(s) in the database
End of status report
==== Log checksum 0361BDFB5261F28C1E34B2B02AFF449A5631221CF2136CF6FCB63323B58103BB ====
Код:
REM GENRE "Rock, Pop Rock"
REM DATE 2001
REM DISCID CB0E1D0F
REM COMMENT "ExactAudioCopy v1.0b3"
PERFORMER "John Mayer"
TITLE "Room For Squares"
FILE "John Mayer - Room For Squares.flac" WAVE
  TRACK 01 AUDIO
    TITLE "No Such Thing"
    PERFORMER "John Mayer"
    ISRC USSM10102940
    INDEX 01 00:00:00
  TRACK 02 AUDIO
    TITLE "Why Georgia"
    PERFORMER "John Mayer"
    ISRC USSM10102942
    INDEX 01 03:51:51
  TRACK 03 AUDIO
    TITLE "My Stupid Mouth"
    PERFORMER "John Mayer"
    ISRC USSM10102956
    INDEX 01 08:20:37
  TRACK 04 AUDIO
    TITLE "Your Body Is A Wonderland"
    PERFORMER "John Mayer"
    ISRC USSM10102943
    INDEX 01 12:05:45
  TRACK 05 AUDIO
    TITLE "Neon"
    PERFORMER "John Mayer"
    ISRC USSM10102941
    INDEX 01 16:15:10
  TRACK 06 AUDIO
    TITLE "City Love"
    PERFORMER "John Mayer"
    ISRC USSM10102947
    INDEX 01 20:37:16
  TRACK 07 AUDIO
    TITLE "83"
    PERFORMER "John Mayer"
    ISRC USSM10102945
    INDEX 01 24:37:30
  TRACK 08 AUDIO
    TITLE "3x5"
    PERFORMER "John Mayer"
    ISRC USSM10108482
    INDEX 01 29:28:26
  TRACK 09 AUDIO
    TITLE "Love Song For No One"
    PERFORMER "John Mayer"
    ISRC USSM10102948
    INDEX 01 34:18:66
  TRACK 10 AUDIO
    TITLE "Back To You"
    PERFORMER "John Mayer"
    ISRC USSM10102939
    INDEX 01 37:40:23
  TRACK 11 AUDIO
    TITLE "Great Indoors"
    PERFORMER "John Mayer"
    ISRC USSM10102944
    INDEX 01 41:42:05
  TRACK 12 AUDIO
    TITLE "Not Myself"
    PERFORMER "John Mayer"
    ISRC USSM10102946
    INDEX 01 45:18:23
  TRACK 13 AUDIO
    TITLE "St. Patrick's Day"
    PERFORMER "John Mayer"
    ISRC USSM10102949
    INDEX 00 48:57:63
    INDEX 01 48:58:65
  TRACK 14 AUDIO
    TITLE "Lenny"
    PERFORMER "John Mayer"
    ISRC USSM10109108
    INDEX 00 54:20:01
    INDEX 01 54:24:65
  TRACK 15 AUDIO
    TITLE "The Wind Cries Mary (Live At The X-Lounge)"
    PERFORMER "John Mayer"
    ISRC USSM10109109
    INDEX 00 56:34:03
    INDEX 01 56:35:29

#777Треклист:
01. Clarity - 4:32
02. Bigger Than My Body - 4:27
03. Something's Missing - 5:06
04. New Deep - 4:09
05. Come Back To Bed - 5:25
06. Home Life - 4:14
07. Split Screen Sadness - 5:06
08. Daughters - 3:59
09. Only Heart - 3:50
10. Wheel - 5:43
Bonus Tracks :
11. Kid A - 2:53
Код:
Exact Audio Copy V1.0 beta 3 from 29. August 2011
EAC extraction logfile from 29. June 2013, 13:49
John Mayer / Heavier Things
Used drive  : ATAPI   iHAS124   B   Adapter: 2  ID: 0
Read mode               : Secure
Utilize accurate stream : Yes
Defeat audio cache      : Yes
Make use of C2 pointers : No
Read offset correction                      : 6
Overread into Lead-In and Lead-Out          : No
Fill up missing offset samples with silence : Yes
Delete leading and trailing silent blocks   : No
Null samples used in CRC calculations       : Yes
Used interface                              : Native Win32 interface for Win NT & 2000
Used output format              : User Defined Encoder
Selected bitrate                : 1024 kBit/s
Quality                         : High
Add ID3 tag                     : No
Command line compressor         : C:\Program Files (x86)\Exact Audio Copy\FLAC\FLAC.EXE
Additional command line options : -8 -V -T "ARTIST=%artist%" -T "TITLE=%title%" -T "ALBUM=%albumtitle%" -T "DATE=%year%" -T "TRACKNUMBER=%tracknr%" -T "GENRE=%genre%" -T "PERFORMER=%albuminterpret%" -T "COMPOSER=%composer%" %haslyrics%--tag-from-file=LYRICS="%lyricsfile%"%haslyrics% -T "ALBUMARTIST=%albumartist%" -T "DISCNUMBER=%cdnumber%" -T "TOTALDISCS=%totalcds%" -T "TOTALTRACKS=%numtracks%" -T "COMMENT=%comment%" %source% -o %dest%
TOC of the extracted CD
     Track |   Start  |  Length  | Start sector | End sector
    ---------------------------------------------------------
        1  |  0:00.00 |  4:31.70 |         0    |    20394
        2  |  4:31.70 |  4:26.40 |     20395    |    40384
        3  |  8:58.35 |  5:05.45 |     40385    |    63304
        4  | 14:04.05 |  4:08.73 |     63305    |    81977
        5  | 18:13.03 |  5:25.22 |     81978    |   106374
        6  | 23:38.25 |  4:13.53 |    106375    |   125402
        7  | 27:52.03 |  5:06.25 |    125403    |   148377
        8  | 32:58.28 |  3:59.15 |    148378    |   166317
        9  | 36:57.43 |  3:50.07 |    166318    |   183574
       10  | 40:47.50 |  5:42.73 |    183575    |   209297
       11  | 46:30.48 |  2:52.72 |    209298    |   222269
Range status and errors
Selected range
     Filename G:\CD\John Mayer - Heavier Things.wav
     Peak level 99.9 %
     Extraction speed 5.7 X
     Range quality 100.0 %
     Test CRC F756FF38
     Copy CRC F756FF38
     Copy OK
No errors occurred
AccurateRip summary
Track  1  cannot be verified as accurate (confidence 4)  [5C916B26], AccurateRip returned [3DCB8B66]  (AR v2)
Track  2  cannot be verified as accurate (confidence 4)  [0C6EF631], AccurateRip returned [F7A249C6]  (AR v2)
Track  3  cannot be verified as accurate (confidence 4)  [5D4659AF], AccurateRip returned [5676B7DB]  (AR v2)
Track  4  cannot be verified as accurate (confidence 4)  [33AA491B], AccurateRip returned [B1D1DED9]  (AR v2)
Track  5  cannot be verified as accurate (confidence 4)  [F4F79446], AccurateRip returned [1D1BCB66]  (AR v2)
Track  6  cannot be verified as accurate (confidence 4)  [F9ED5591], AccurateRip returned [9BF17F13]  (AR v2)
Track  7  cannot be verified as accurate (confidence 4)  [37AEB147], AccurateRip returned [FA58FB90]  (AR v2)
Track  8  cannot be verified as accurate (confidence 4)  [EC75F237], AccurateRip returned [DD2E845F]  (AR v2)
Track  9  cannot be verified as accurate (confidence 4)  [185E7729], AccurateRip returned [1A143B3E]  (AR v2)
Track 10  cannot be verified as accurate (confidence 4)  [678CA73B], AccurateRip returned [739B4145]  (AR v2)
Track 11  cannot be verified as accurate (confidence 4)  [6408F545], AccurateRip returned [BC2DDDA1]  (AR v2)
No tracks could be verified as accurate
You may have a different pressing from the one(s) in the database
End of status report
==== Log checksum B4F5E2744E69439C718E565FC52984F78B1AEDDA1750407D83156FAF270FC423 ====
Код:
REM GENRE "Blues Rock, Pop Rock"
REM DATE 2003
REM DISCID 980B930B
REM COMMENT "ExactAudioCopy v1.0b3"
PERFORMER "John Mayer"
TITLE "Heavier Things"
FILE "John Mayer - Heavier Things.flac" WAVE
  TRACK 01 AUDIO
    TITLE "Clarity"
    PERFORMER "John Mayer"
    INDEX 01 00:00:00
  TRACK 02 AUDIO
    TITLE "Bigger Than My Body"
    PERFORMER "John Mayer"
    INDEX 01 04:31:70
  TRACK 03 AUDIO
    TITLE "Something's Missing"
    PERFORMER "John Mayer"
    INDEX 01 08:58:35
  TRACK 04 AUDIO
    TITLE "New Deep"
    PERFORMER "John Mayer"
    INDEX 00 14:03:00
    INDEX 01 14:04:05
  TRACK 05 AUDIO
    TITLE "Come Back To Bed"
    PERFORMER "John Mayer"
    INDEX 00 18:11:40
    INDEX 01 18:13:03
  TRACK 06 AUDIO
    TITLE "Home Life"
    PERFORMER "John Mayer"
    INDEX 00 23:36:65
    INDEX 01 23:38:25
  TRACK 07 AUDIO
    TITLE "Split Screen Sadness"
    PERFORMER "John Mayer"
    INDEX 01 27:52:03
  TRACK 08 AUDIO
    TITLE "Daughters"
    PERFORMER "John Mayer"
    INDEX 01 32:58:28
  TRACK 09 AUDIO
    TITLE "Only Heart"
    PERFORMER "John Mayer"
    INDEX 00 36:56:20
    INDEX 01 36:57:43
  TRACK 10 AUDIO
    TITLE "Wheel"
    PERFORMER "John Mayer"
    INDEX 00 40:46:45
    INDEX 01 40:47:50
  TRACK 11 AUDIO
    TITLE "Kid A"
    PERFORMER "John Mayer"
    INDEX 00 46:20:48
    INDEX 01 46:30:48
#777Треклист:
01. Waiting On The World To Change - 3:21
02. I Don't Trust Myself (With Loving You) - 4:52
03. Belief - 4:02
04. Gravity - 4:06
05. The Heart Of Life - 3:19
06. Vultures - 4:12
07. Stop This Train - 4:45
08. Slow Dancing In A Burning Room - 4:02
09. Bold As Love - 4:18
10. Dreaming With A Broken Heart - 4:08
11. In Repair - 6:10
12. I'm Gonna Find Another You - 2:43
13. Who Did You Think I Was (Live In Concert) - 3:11
Bonus Tracks :
14. Good Love Is On The Way (New Studio Version) - 3:35
15. Waiting On The World To Change (featuring Ben Harper) - 2:53
Код:
Exact Audio Copy V1.0 beta 3 from 29. August 2011
EAC extraction logfile from 15. October 2013, 10:53
John Mayer / Continuum
Used drive  : ATAPI   iHAS124   B   Adapter: 2  ID: 0
Read mode               : Secure
Utilize accurate stream : Yes
Defeat audio cache      : Yes
Make use of C2 pointers : No
Read offset correction                      : 6
Overread into Lead-In and Lead-Out          : No
Fill up missing offset samples with silence : Yes
Delete leading and trailing silent blocks   : No
Null samples used in CRC calculations       : Yes
Used interface                              : Native Win32 interface for Win NT & 2000
Used output format              : User Defined Encoder
Selected bitrate                : 1024 kBit/s
Quality                         : High
Add ID3 tag                     : No
Command line compressor         : C:\Program Files (x86)\Exact Audio Copy\FLAC\FLAC.EXE
Additional command line options : -8 -V -T "ARTIST=%artist%" -T "TITLE=%title%" -T "ALBUM=%albumtitle%" -T "DATE=%year%" -T "TRACKNUMBER=%tracknr%" -T "GENRE=%genre%" -T "PERFORMER=%albuminterpret%" -T "COMPOSER=%composer%" %haslyrics%--tag-from-file=LYRICS="%lyricsfile%"%haslyrics% -T "ALBUMARTIST=%albumartist%" -T "DISCNUMBER=%cdnumber%" -T "TOTALDISCS=%totalcds%" -T "TOTALTRACKS=%numtracks%" -T "COMMENT=%comment%" %source% -o %dest%
TOC of the extracted CD
     Track |   Start  |  Length  | Start sector | End sector
    ---------------------------------------------------------
        1  |  0:00.00 |  3:21.13 |         0    |    15087
        2  |  3:21.13 |  4:52.01 |     15088    |    36988
        3  |  8:13.14 |  4:02.25 |     36989    |    55163
        4  | 12:15.39 |  4:05.62 |     55164    |    73600
        5  | 16:21.26 |  3:19.11 |     73601    |    88536
        6  | 19:40.37 |  4:11.62 |     88537    |   107423
        7  | 23:52.24 |  4:45.03 |    107424    |   128801
        8  | 28:37.27 |  4:02.01 |    128802    |   146952
        9  | 32:39.28 |  4:18.12 |    146953    |   166314
       10  | 36:57.40 |  4:07.61 |    166315    |   184900
       11  | 41:05.26 |  6:09.61 |    184901    |   212636
       12  | 47:15.12 |  2:43.22 |    212637    |   224883
       13  | 49:58.34 |  3:11.08 |    224884    |   239216
       14  | 53:09.42 |  3:34.65 |    239217    |   255331
       15  | 56:44.32 |  2:53.30 |    255332    |   268336
Range status and errors
Selected range
     Filename G:\CD\John Mayer - Continuum.wav
     Peak level 99.8 %
     Extraction speed 6.0 X
     Range quality 100.0 %
     Test CRC 402C9615
     Copy CRC 402C9615
     Copy OK
No errors occurred
AccurateRip summary
Track  1  accurately ripped (confidence 4)  [B678BD92]  (AR v2)
Track  2  accurately ripped (confidence 4)  [DFF5E6D7]  (AR v2)
Track  3  accurately ripped (confidence 4)  [8D1651E9]  (AR v2)
Track  4  accurately ripped (confidence 4)  [AE752F4E]  (AR v2)
Track  5  accurately ripped (confidence 4)  [D9B93A6F]  (AR v2)
Track  6  accurately ripped (confidence 4)  [55E1F390]  (AR v2)
Track  7  accurately ripped (confidence 4)  [EFB1019A]  (AR v2)
Track  8  accurately ripped (confidence 4)  [0098A167]  (AR v2)
Track  9  accurately ripped (confidence 4)  [7D1F9A95]  (AR v2)
Track 10  accurately ripped (confidence 4)  [19534BD0]  (AR v2)
Track 11  accurately ripped (confidence 4)  [D9AB9D12]  (AR v2)
Track 12  accurately ripped (confidence 4)  [A7740F9A]  (AR v2)
Track 13  accurately ripped (confidence 4)  [7E077FC1]  (AR v2)
Track 14  accurately ripped (confidence 3)  [91A2443B]  (AR v2)
Track 15  accurately ripped (confidence 3)  [55FC2253]  (AR v2)
All tracks accurately ripped
End of status report
==== Log checksum 34BF99B9D68A919B9FA83D32AE696EB0EF86957199AA64A838E5B8CFE26BB637 ====
Код:
REM GENRE "Pop Rock, Soft Rock"
REM DATE 2006
REM DISCID CC0DF90F
REM COMMENT "ExactAudioCopy v1.0b3"
PERFORMER "John Mayer"
TITLE "Continuum"
FILE "John Mayer - Continuum.flac" WAVE
  TRACK 01 AUDIO
    TITLE "Waiting On The World To Change"
    PERFORMER "John Mayer"
    ISRC USSM10602589
    INDEX 01 00:00:00
  TRACK 02 AUDIO
    TITLE "I Don't Trust Myself (With Loving You)"
    PERFORMER "John Mayer"
    ISRC USSM10603626
    INDEX 01 03:21:13
  TRACK 03 AUDIO
    TITLE "Belief"
    PERFORMER "John Mayer"
    ISRC USSM10603627
    INDEX 01 08:13:14
  TRACK 04 AUDIO
    TITLE "Gravity"
    PERFORMER "John Mayer"
    ISRC USSM10603628
    INDEX 01 12:15:39
  TRACK 05 AUDIO
    TITLE "The Heart Of Life"
    PERFORMER "John Mayer"
    ISRC USSM10603629
    INDEX 01 16:21:26
  TRACK 06 AUDIO
    TITLE "Vultures"
    PERFORMER "John Mayer"
    ISRC USSM10603630
    INDEX 00 19:39:37
    INDEX 01 19:40:37
  TRACK 07 AUDIO
    TITLE "Stop This Train"
    PERFORMER "John Mayer"
    ISRC USSM10603631
    INDEX 00 23:51:25
    INDEX 01 23:52:24
  TRACK 08 AUDIO
    TITLE "Slow Dancing In A Burning Room"
    PERFORMER "John Mayer"
    ISRC USSM10603632
    INDEX 01 28:37:27
  TRACK 09 AUDIO
    TITLE "Bold As Love"
    PERFORMER "John Mayer"
    ISRC USSM10603633
    INDEX 01 32:39:28
  TRACK 10 AUDIO
    TITLE "Dreaming With A Broken Heart"
    PERFORMER "John Mayer"
    ISRC USSM10603634
    INDEX 01 36:57:40
  TRACK 11 AUDIO
    TITLE "In Repair"
    PERFORMER "John Mayer"
    ISRC USSM10603635
    INDEX 00 41:03:21
    INDEX 01 41:05:26
  TRACK 12 AUDIO
    TITLE "I'm Gonna Find Another You"
    PERFORMER "John Mayer"
    ISRC USSM10603636
    INDEX 00 47:13:13
    INDEX 01 47:15:12
  TRACK 13 AUDIO
    TITLE "Who Did You Think I Was (Live In Concert)"
    PERFORMER "John Mayer"
    ISRC USSM10506210
    INDEX 00 49:56:54
    INDEX 01 49:58:34
  TRACK 14 AUDIO
    TITLE "Good Love Is On The Way (New Studio Version)"
    PERFORMER "John Mayer"
    ISRC USSM10603908
    INDEX 00 53:07:39
    INDEX 01 53:09:42
  TRACK 15 AUDIO
    TITLE "Waiting On The World To Change (featuring Ben Harper)"
    PERFORMER "John Mayer"
    ISRC USSM10603907
    INDEX 00 56:43:28
    INDEX 01 56:44:32
#777Треклист:
01. Heartbreak Warfare - 4:30
02. All We Ever Do Is Say Goodbye - 4:35
03. Half Of My Heart - Taylor Swift - 4:10
04. Who Says - 2:55
05. Perfectly Lonely - 4:28
06. Assassin - 5:15
07. Crossroads - 2:29
08. War Of My Life - 4:15
09. Edge Of Desire - 5:32
10. Do You Know Me - 2:30
11. Friends, Lovers Or Nothing - 5:59
Bonus Tracks :
12. I'm On Fire - 2:52
13. Say - 3:50
Код:
Exact Audio Copy V1.0 beta 3 from 29. August 2011
EAC extraction logfile from 15. October 2013, 11:13
John Mayer / Battle Studies
Used drive  : ATAPI   iHAS124   B   Adapter: 2  ID: 0
Read mode               : Secure
Utilize accurate stream : Yes
Defeat audio cache      : Yes
Make use of C2 pointers : No
Read offset correction                      : 6
Overread into Lead-In and Lead-Out          : No
Fill up missing offset samples with silence : Yes
Delete leading and trailing silent blocks   : No
Null samples used in CRC calculations       : Yes
Used interface                              : Native Win32 interface for Win NT & 2000
Used output format              : User Defined Encoder
Selected bitrate                : 1024 kBit/s
Quality                         : High
Add ID3 tag                     : No
Command line compressor         : C:\Program Files (x86)\Exact Audio Copy\FLAC\FLAC.EXE
Additional command line options : -8 -V -T "ARTIST=%artist%" -T "TITLE=%title%" -T "ALBUM=%albumtitle%" -T "DATE=%year%" -T "TRACKNUMBER=%tracknr%" -T "GENRE=%genre%" -T "PERFORMER=%albuminterpret%" -T "COMPOSER=%composer%" %haslyrics%--tag-from-file=LYRICS="%lyricsfile%"%haslyrics% -T "ALBUMARTIST=%albumartist%" -T "DISCNUMBER=%cdnumber%" -T "TOTALDISCS=%totalcds%" -T "TOTALTRACKS=%numtracks%" -T "COMMENT=%comment%" %source% -o %dest%
TOC of the extracted CD
     Track |   Start  |  Length  | Start sector | End sector
    ---------------------------------------------------------
        1  |  0:00.00 |  4:29.54 |         0    |    20228
        2  |  4:29.54 |  4:35.20 |     20229    |    40873
        3  |  9:04.74 |  4:10.28 |     40874    |    59651
        4  | 13:15.27 |  2:55.36 |     59652    |    72812
        5  | 16:10.63 |  4:28.07 |     72813    |    92919
        6  | 20:38.70 |  5:14.64 |     92920    |   116533
        7  | 25:53.59 |  2:29.29 |    116534    |   127737
        8  | 28:23.13 |  4:15.09 |    127738    |   146871
        9  | 32:38.22 |  5:32.05 |    146872    |   171776
       10  | 38:10.27 |  2:30.24 |    171777    |   183050
       11  | 40:40.51 |  5:59.18 |    183051    |   209993
       12  | 46:39.69 |  2:52.16 |    209994    |   222909
       13  | 49:32.10 |  3:50.16 |    222910    |   240175
Range status and errors
Selected range
     Filename G:\CD\John Mayer - Battle Studies.wav
     Peak level 100.0 %
     Extraction speed 5.8 X
     Range quality 100.0 %
     Test CRC 03C82674
     Copy CRC 03C82674
     Copy OK
No errors occurred
AccurateRip summary
Track  1  accurately ripped (confidence 5)  [36AEBA24]  (AR v2)
Track  2  accurately ripped (confidence 5)  [015E87B3]  (AR v2)
Track  3  accurately ripped (confidence 5)  [242570CD]  (AR v2)
Track  4  accurately ripped (confidence 5)  [F1B7B42C]  (AR v2)
Track  5  accurately ripped (confidence 5)  [BF3814AA]  (AR v2)
Track  6  accurately ripped (confidence 5)  [38918CCE]  (AR v2)
Track  7  accurately ripped (confidence 5)  [4100E3C1]  (AR v2)
Track  8  accurately ripped (confidence 5)  [E4D45F33]  (AR v2)
Track  9  accurately ripped (confidence 5)  [A7D95C27]  (AR v2)
Track 10  accurately ripped (confidence 5)  [34BBC66D]  (AR v2)
Track 11  accurately ripped (confidence 5)  [015A73BE]  (AR v2)
Track 12  accurately ripped (confidence 5)  [FC6BA50D]  (AR v2)
Track 13  accurately ripped (confidence 5)  [AC55144C]  (AR v2)
All tracks accurately ripped
End of status report
==== Log checksum 85642B397D7D9D1296F653FA5AA825FC92FC408EB78F3AF2178A7493560BE86A ====
Код:
REM GENRE "Rock, Pop, Blues Rock"
REM DATE 2009
REM DISCID B40C820D
REM COMMENT "ExactAudioCopy v1.0b3"
PERFORMER "John Mayer"
TITLE "Battle Studies"
FILE "John Mayer - Battle Studies.flac" WAVE
  TRACK 01 AUDIO
    TITLE "1. Heartbreak Warfare"
    PERFORMER "John Mayer"
    ISRC USSM10905699
    INDEX 01 00:00:00
  TRACK 02 AUDIO
    TITLE "2. All We Ever Do Is Say Goodbye"
    PERFORMER "John Mayer"
    ISRC USSM10905700
    INDEX 01 04:29:54
  TRACK 03 AUDIO
    TITLE "3. Half Of My Heart - Taylor Swift"
    PERFORMER "John Mayer"
    ISRC USSM10905701
    INDEX 01 09:04:74
  TRACK 04 AUDIO
    TITLE "4. Who Says"
    PERFORMER "John Mayer"
    ISRC USSM10904983
    INDEX 01 13:15:27
  TRACK 05 AUDIO
    TITLE "5. Perfectly Lonely"
    PERFORMER "John Mayer"
    ISRC USSM10905702
    INDEX 01 16:10:63
  TRACK 06 AUDIO
    TITLE "6. Assassin"
    PERFORMER "John Mayer"
    ISRC USSM10905703
    INDEX 01 20:38:70
  TRACK 07 AUDIO
    TITLE "7. Crossroads"
    PERFORMER "John Mayer"
    ISRC USSM10905704
    INDEX 01 25:53:59
  TRACK 08 AUDIO
    TITLE "8. War Of My Life"
    PERFORMER "John Mayer"
    ISRC USSM10905705
    INDEX 01 28:23:13
  TRACK 09 AUDIO
    TITLE "9. Edge Of Desire"
    PERFORMER "John Mayer"
    ISRC USSM10905706
    INDEX 01 32:38:22
  TRACK 10 AUDIO
    TITLE "10. Do You Know Me"
    PERFORMER "John Mayer"
    ISRC USSM10905707
    INDEX 01 38:10:27
  TRACK 11 AUDIO
    TITLE "11. Friends, Lovers Or Nothing"
    PERFORMER "John Mayer"
    ISRC USSM10905708
    INDEX 01 40:40:51
  TRACK 12 AUDIO
    TITLE "12. I'm On Fire"
    PERFORMER "John Mayer"
    ISRC USSM10905819
    INDEX 01 46:39:69
  TRACK 13 AUDIO
    TITLE "13. Say"
    PERFORMER "John Mayer"
    ISRC USSM10704655
    INDEX 01 49:32:10
#777Треклист:
01. Queen of California - 4:10
02. The Age of Worry - 2:40
03. Shadow Days - 3:50
04. Speak For Me - 3:46
05. Something Like Olivia - 3:01
06. Born and Raised - 4:49
07. If I Ever Get Around To Living - 5:22
08. Love Is A Verb - 2:28
09. Walt Grace's Submarine Test, January 1967 - 5:10
10. Whiskey, Whiskey, Whiskey - 4:39
11. A Face To Call Home - 4:46
12. Born and Raised [Reprise] - 2:01
Код:
Exact Audio Copy V1.0 beta 3 from 29. August 2011
EAC extraction logfile from 16. September 2013, 18:50
John Mayer / Born and Raised
Used drive  : ATAPI   iHAS124   B   Adapter: 2  ID: 0
Read mode               : Secure
Utilize accurate stream : Yes
Defeat audio cache      : Yes
Make use of C2 pointers : No
Read offset correction                      : 6
Overread into Lead-In and Lead-Out          : No
Fill up missing offset samples with silence : Yes
Delete leading and trailing silent blocks   : No
Null samples used in CRC calculations       : Yes
Used interface                              : Native Win32 interface for Win NT & 2000
Used output format              : User Defined Encoder
Selected bitrate                : 1024 kBit/s
Quality                         : High
Add ID3 tag                     : No
Command line compressor         : C:\Program Files (x86)\Exact Audio Copy\FLAC\FLAC.EXE
Additional command line options : -8 -V -T "ARTIST=%artist%" -T "TITLE=%title%" -T "ALBUM=%albumtitle%" -T "DATE=%year%" -T "TRACKNUMBER=%tracknr%" -T "GENRE=%genre%" -T "PERFORMER=%albuminterpret%" -T "COMPOSER=%composer%" %haslyrics%--tag-from-file=LYRICS="%lyricsfile%"%haslyrics% -T "ALBUMARTIST=%albumartist%" -T "DISCNUMBER=%cdnumber%" -T "TOTALDISCS=%totalcds%" -T "TOTALTRACKS=%numtracks%" -T "COMMENT=%comment%" %source% -o %dest%
TOC of the extracted CD
     Track |   Start  |  Length  | Start sector | End sector
    ---------------------------------------------------------
        1  |  0:00.00 |  4:10.10 |         0    |    18759
        2  |  4:10.10 |  2:39.54 |     18760    |    30738
        3  |  6:49.64 |  3:50.22 |     30739    |    48010
        4  | 10:40.11 |  3:45.38 |     48011    |    64923
        5  | 14:25.49 |  3:01.26 |     64924    |    78524
        6  | 17:27.00 |  4:49.19 |     78525    |   100218
        7  | 22:16.19 |  5:21.54 |    100219    |   124347
        8  | 27:37.73 |  2:27.72 |    124348    |   135444
        9  | 30:05.70 |  5:10.18 |    135445    |   158712
       10  | 35:16.13 |  4:39.33 |    158713    |   179670
       11  | 39:55.46 |  4:46.35 |    179671    |   201155
       12  | 44:42.06 |  2:00.53 |    201156    |   210208
Range status and errors
Selected range
     Filename G:\CD\John Mayer - Born and Raised.wav
     Peak level 100.0 %
     Extraction speed 6.1 X
     Range quality 100.0 %
     Test CRC E1F53702
     Copy CRC E1F53702
     Copy OK
No errors occurred
AccurateRip summary
Track  1  accurately ripped (confidence 2)  [71782E7A]  (AR v2)
Track  2  accurately ripped (confidence 2)  [83207A5B]  (AR v2)
Track  3  accurately ripped (confidence 2)  [382AB82B]  (AR v2)
Track  4  accurately ripped (confidence 2)  [8F8232FC]  (AR v2)
Track  5  accurately ripped (confidence 2)  [C556CBD9]  (AR v2)
Track  6  accurately ripped (confidence 2)  [BC258A43]  (AR v2)
Track  7  accurately ripped (confidence 2)  [C998D025]  (AR v2)
Track  8  accurately ripped (confidence 2)  [57948C9C]  (AR v2)
Track  9  accurately ripped (confidence 2)  [336306E9]  (AR v2)
Track 10  accurately ripped (confidence 2)  [A342F18F]  (AR v2)
Track 11  accurately ripped (confidence 2)  [AD181727]  (AR v2)
Track 12  accurately ripped (confidence 2)  [76555D19]  (AR v2)
All tracks accurately ripped
End of status report
==== Log checksum 5DE9B6B661324866AB27DBFE32A70A7CC236F14C4ABF64B988097BC33E49791D ====
Код:
REM GENRE "Blues Rock"
REM DATE 2012
REM DISCID A90AF20C
REM COMMENT "ExactAudioCopy v1.0b3"
PERFORMER "John Mayer"
TITLE "Born and Raised"
FILE "John Mayer - Born and Raised.flac" WAVE
  TRACK 01 AUDIO
    TITLE "Queen of California"
    PERFORMER "John Mayer"
    ISRC USSM11201476
    INDEX 01 00:00:00
  TRACK 02 AUDIO
    TITLE "The Age of Worry"
    PERFORMER "John Mayer"
    ISRC USSM11201477
    INDEX 01 04:10:10
  TRACK 03 AUDIO
    TITLE "Shadow Days"
    PERFORMER "John Mayer"
    ISRC USSM11201311
    INDEX 00 06:47:54
    INDEX 01 06:49:64
  TRACK 04 AUDIO
    TITLE "Speak For Me"
    PERFORMER "John Mayer"
    ISRC USSM11201478
    INDEX 00 10:38:02
    INDEX 01 10:40:11
  TRACK 05 AUDIO
    TITLE "Something Like Olivia"
    PERFORMER "John Mayer"
    ISRC USSM11201479
    INDEX 00 14:24:62
    INDEX 01 14:25:49
  TRACK 06 AUDIO
    TITLE "Born and Raised"
    PERFORMER "John Mayer"
    ISRC USSM11201480
    INDEX 00 17:26:21
    INDEX 01 17:27:00
  TRACK 07 AUDIO
    TITLE "If I Ever Get Around To Living"
    PERFORMER "John Mayer"
    ISRC USSM11201481
    INDEX 00 22:14:48
    INDEX 01 22:16:19
  TRACK 08 AUDIO
    TITLE "Love Is A Verb"
    PERFORMER "John Mayer"
    ISRC USSM11201482
    INDEX 01 27:37:73
  TRACK 09 AUDIO
    TITLE "Walt Grace's Submarine Test, January 1967"
    PERFORMER "John Mayer"
    ISRC USSM11201483
    INDEX 00 30:02:28
    INDEX 01 30:05:70
  TRACK 10 AUDIO
    TITLE "Whiskey, Whiskey, Whiskey"
    PERFORMER "John Mayer"
    ISRC USSM11201484
    INDEX 00 35:13:69
    INDEX 01 35:16:13
  TRACK 11 AUDIO
    TITLE "A Face To Call Home"
    PERFORMER "John Mayer"
    ISRC USSM11201485
    INDEX 00 39:54:63
    INDEX 01 39:55:46
  TRACK 12 AUDIO
    TITLE "Born and Raised [Reprise]"
    PERFORMER "John Mayer"
    ISRC USSM11201486
    INDEX 00 44:40:69
    INDEX 01 44:42:06

#777Треклист:
01. Wildfire - 4:15
02. Dear Marie - 3:45
03. Waitin' On The Day - 4:35
04. Paper Doll - 4:20
05. Call Me The Breeze - 3:27
06. Who You Love - 4:13
07. I Will Be Found (Lost At Sea) - 4:04
08. Wildfire - 1:28
09. You're No One 'Til Someone Lets You Down - 2:48
10. Badge And Gun - 3:15
11. On The Way Home - 4:00
Код:
Exact Audio Copy V1.0 beta 3 from 29. August 2011
EAC extraction logfile from 16. September 2013, 10:43
John Mayer / Paradise Valley
Used drive  : ATAPI   iHAS124   B   Adapter: 2  ID: 0
Read mode               : Secure
Utilize accurate stream : Yes
Defeat audio cache      : Yes
Make use of C2 pointers : No
Read offset correction                      : 6
Overread into Lead-In and Lead-Out          : No
Fill up missing offset samples with silence : Yes
Delete leading and trailing silent blocks   : No
Null samples used in CRC calculations       : Yes
Used interface                              : Native Win32 interface for Win NT & 2000
Used output format              : User Defined Encoder
Selected bitrate                : 1024 kBit/s
Quality                         : High
Add ID3 tag                     : No
Command line compressor         : C:\Program Files (x86)\Exact Audio Copy\FLAC\FLAC.EXE
Additional command line options : -8 -V -T "ARTIST=%artist%" -T "TITLE=%title%" -T "ALBUM=%albumtitle%" -T "DATE=%year%" -T "TRACKNUMBER=%tracknr%" -T "GENRE=%genre%" -T "PERFORMER=%albuminterpret%" -T "COMPOSER=%composer%" %haslyrics%--tag-from-file=LYRICS="%lyricsfile%"%haslyrics% -T "ALBUMARTIST=%albumartist%" -T "DISCNUMBER=%cdnumber%" -T "TOTALDISCS=%totalcds%" -T "TOTALTRACKS=%numtracks%" -T "COMMENT=%comment%" %source% -o %dest%
TOC of the extracted CD
     Track |   Start  |  Length  | Start sector | End sector
    ---------------------------------------------------------
        1  |  0:00.00 |  4:15.07 |         0    |    19131
        2  |  4:15.07 |  3:44.60 |     19132    |    35991
        3  |  7:59.67 |  4:35.33 |     35992    |    56649
        4  | 12:35.25 |  4:19.72 |     56650    |    76146
        5  | 16:55.22 |  3:27.05 |     76147    |    91676
        6  | 20:22.27 |  4:12.53 |     91677    |   110629
        7  | 24:35.05 |  4:03.45 |    110630    |   128899
        8  | 28:38.50 |  1:28.02 |    128900    |   135501
        9  | 30:06.52 |  2:48.11 |    135502    |   148112
       10  | 32:54.63 |  3:15.14 |    148113    |   162751
       11  | 36:10.02 |  3:59.41 |    162752    |   180717
Range status and errors
Selected range
     Filename G:\CD\John Mayer - Paradise Valley.wav
     Peak level 100.0 %
     Extraction speed 5.2 X
     Range quality 100.0 %
     Test CRC A8FA96D5
     Copy CRC A8FA96D5
     Copy OK
No errors occurred
AccurateRip summary
Track  1  accurately ripped (confidence 4)  [C601DD13]  (AR v2)
Track  2  accurately ripped (confidence 4)  [1CC48F1F]  (AR v2)
Track  3  accurately ripped (confidence 4)  [2A42F2D5]  (AR v2)
Track  4  accurately ripped (confidence 4)  [0B162989]  (AR v2)
Track  5  accurately ripped (confidence 4)  [C3288FB1]  (AR v2)
Track  6  accurately ripped (confidence 4)  [C296850E]  (AR v2)
Track  7  accurately ripped (confidence 4)  [9F5FF9BC]  (AR v2)
Track  8  accurately ripped (confidence 4)  [B65C9D49]  (AR v2)
Track  9  accurately ripped (confidence 4)  [23A4C922]  (AR v2)
Track 10  accurately ripped (confidence 4)  [9C1A9234]  (AR v2)
Track 11  accurately ripped (confidence 4)  [B4F2CD5D]  (AR v2)
All tracks accurately ripped
End of status report
==== Log checksum 4235980A91122D248FA4C09D8C2F4B7A55BEA93FAAE4FB8F2639A93E2193D6C3 ====
Код:
REM GENRE "Rock, Pop Rock"
REM DATE 2013
REM DISCID 9309690B
REM COMMENT "ExactAudioCopy v1.0b3"
PERFORMER "John Mayer"
TITLE "Paradise Valley"
FILE "John Mayer - Paradise Valley.flac" WAVE
  TRACK 01 AUDIO
    TITLE "Wildfire"
    PERFORMER "John Mayer"
    ISRC USSM11303942
    INDEX 01 00:00:00
  TRACK 02 AUDIO
    TITLE "Dear Marie"
    PERFORMER "John Mayer"
    ISRC USSM11303943
    INDEX 00 04:13:37
    INDEX 01 04:15:07
  TRACK 03 AUDIO
    TITLE "Waitin' On The Day"
    PERFORMER "John Mayer"
    ISRC USSM11303944
    INDEX 00 07:57:61
    INDEX 01 07:59:67
  TRACK 04 AUDIO
    TITLE "Paper Doll"
    PERFORMER "John Mayer"
    ISRC USSM11303526
    INDEX 00 12:32:72
    INDEX 01 12:35:25
  TRACK 05 AUDIO
    TITLE "Call Me The Breeze"
    PERFORMER "John Mayer"
    ISRC USSM11303947
    INDEX 00 16:52:54
    INDEX 01 16:55:22
  TRACK 06 AUDIO
    TITLE "Who You Love"
    PERFORMER "John Mayer"
    ISRC USSM11303945
    INDEX 00 20:20:49
    INDEX 01 20:22:27
  TRACK 07 AUDIO
    TITLE "I Will Be Found (Lost At Sea)"
    PERFORMER "John Mayer"
    ISRC USSM11303946
    INDEX 00 24:32:22
    INDEX 01 24:35:05
  TRACK 08 AUDIO
    TITLE "Wildfire"
    PERFORMER "John Mayer"
    ISRC USSM11303950
    INDEX 00 28:36:31
    INDEX 01 28:38:50
  TRACK 09 AUDIO
    TITLE "You're No One 'Til Someone Lets You Down"
    PERFORMER "John Mayer"
    ISRC USSM11303949
    INDEX 00 30:04:38
    INDEX 01 30:06:52
  TRACK 10 AUDIO
    TITLE "Badge And Gun"
    PERFORMER "John Mayer"
    ISRC USSM11303948
    INDEX 00 32:51:52
    INDEX 01 32:54:63
  TRACK 11 AUDIO
    TITLE "On The Way Home"
    PERFORMER "John Mayer"
    ISRC USSM11303951
    INDEX 00 36:07:11
    INDEX 01 36:10:02

Live Album
#777Треклист:
01. Who Did You Think I Was - 3:09
02. Good Love Is on the Way - 4:51
03. Wait Until Tomorrow - 4:15
04. Gravity - 5:49
05. Vultures - 5:19
06. Out of My Mind - 7:39
07. Another Kind of Green - 4:40
08. I Got a Woman - 7:40
09. Something's Missing - 6:57
10. Daughters - 6:15
11. Try - 6:53
Код:
Exact Audio Copy V1.0 beta 3 from 29. August 2011
EAC extraction logfile from 27. October 2013, 16:48
John Mayer Trio / Try!
Used drive  : ATAPI   iHAS124   B   Adapter: 2  ID: 0
Read mode               : Secure
Utilize accurate stream : Yes
Defeat audio cache      : Yes
Make use of C2 pointers : No
Read offset correction                      : 6
Overread into Lead-In and Lead-Out          : No
Fill up missing offset samples with silence : Yes
Delete leading and trailing silent blocks   : No
Null samples used in CRC calculations       : Yes
Used interface                              : Native Win32 interface for Win NT & 2000
Used output format              : User Defined Encoder
Selected bitrate                : 1024 kBit/s
Quality                         : High
Add ID3 tag                     : No
Command line compressor         : C:\Program Files (x86)\Exact Audio Copy\FLAC\FLAC.EXE
Additional command line options : -8 -V -T "ARTIST=%artist%" -T "TITLE=%title%" -T "ALBUM=%albumtitle%" -T "DATE=%year%" -T "TRACKNUMBER=%tracknr%" -T "GENRE=%genre%" -T "PERFORMER=%albuminterpret%" -T "COMPOSER=%composer%" %haslyrics%--tag-from-file=LYRICS="%lyricsfile%"%haslyrics% -T "ALBUMARTIST=%albumartist%" -T "DISCNUMBER=%cdnumber%" -T "TOTALDISCS=%totalcds%" -T "TOTALTRACKS=%numtracks%" -T "COMMENT=%comment%" %source% -o %dest%
TOC of the extracted CD
     Track |   Start  |  Length  | Start sector | End sector
    ---------------------------------------------------------
        1  |  0:00.00 |  3:09.12 |         0    |    14186
        2  |  3:09.12 |  4:50.45 |     14187    |    35981
        3  |  7:59.57 |  4:14.51 |     35982    |    55082
        4  | 12:14.33 |  5:49.19 |     55083    |    81276
        5  | 18:03.52 |  5:19.18 |     81277    |   105219
        6  | 23:22.70 |  7:39.15 |    105220    |   139659
        7  | 31:02.10 |  4:39.73 |    139660    |   160657
        8  | 35:42.08 |  7:40.10 |    160658    |   195167
        9  | 43:22.18 |  6:56.60 |    195168    |   226427
       10  | 50:19.03 |  6:14.44 |    226428    |   254521
       11  | 56:33.47 |  6:53.22 |    254522    |   285518
Range status and errors
Selected range
     Filename G:\CD\John Mayer Trio - Try!.wav
     Peak level 98.0 %
     Extraction speed 6.5 X
     Range quality 100.0 %
     Test CRC 7E92A2C8
     Copy CRC 7E92A2C8
     Copy OK
No errors occurred
AccurateRip summary
Track  1  accurately ripped (confidence 4)  [777C0A6C]  (AR v2)
Track  2  accurately ripped (confidence 4)  [551BB9E0]  (AR v2)
Track  3  accurately ripped (confidence 4)  [CF064C82]  (AR v2)
Track  4  accurately ripped (confidence 4)  [99D95CE6]  (AR v2)
Track  5  accurately ripped (confidence 4)  [63D5B668]  (AR v2)
Track  6  accurately ripped (confidence 4)  [E0C3E6AA]  (AR v2)
Track  7  accurately ripped (confidence 4)  [068F9C2A]  (AR v2)
Track  8  accurately ripped (confidence 4)  [3E8CC43C]  (AR v2)
Track  9  accurately ripped (confidence 4)  [80468CEE]  (AR v2)
Track 10  accurately ripped (confidence 4)  [3861933A]  (AR v2)
Track 11  accurately ripped (confidence 4)  [1BD14DF5]  (AR v2)
All tracks accurately ripped
End of status report
==== Log checksum 0EE134A4C14231E6AD52780A5465F479603FECEC4AA261505CA97269B8E5F161 ====
Код:
REM GENRE "Electric Blues"
REM DATE 2005
REM DISCID 850EDE0B
REM COMMENT "ExactAudioCopy v1.0b3"
PERFORMER "John Mayer Trio"
TITLE "Try!"
FILE "John Mayer Trio - Try!.flac" WAVE
  TRACK 01 AUDIO
    TITLE "Who Did You Think I Was"
    PERFORMER "John Mayer Trio"
    ISRC USSM10506210
    INDEX 01 00:00:00
  TRACK 02 AUDIO
    TITLE "Good Love Is on the Way"
    PERFORMER "John Mayer Trio"
    ISRC USSM10506180
    INDEX 01 03:09:12
  TRACK 03 AUDIO
    TITLE "Wait Until Tomorrow"
    PERFORMER "John Mayer Trio"
    ISRC USSM10506183
    INDEX 01 07:59:57
  TRACK 04 AUDIO
    TITLE "Gravity"
    PERFORMER "John Mayer Trio"
    ISRC USSM10506186
    INDEX 01 12:14:33
  TRACK 05 AUDIO
    TITLE "Vultures"
    PERFORMER "John Mayer Trio"
    ISRC USSM10506185
    INDEX 01 18:03:52
  TRACK 06 AUDIO
    TITLE "Out of My Mind"
    PERFORMER "John Mayer Trio"
    ISRC USSM10506179
    INDEX 01 23:22:70
  TRACK 07 AUDIO
    TITLE "Another Kind of Green"
    PERFORMER "John Mayer Trio"
    ISRC USSM10506182
    INDEX 01 31:02:10
  TRACK 08 AUDIO
    TITLE "I Got a Woman"
    PERFORMER "John Mayer Trio"
    ISRC USSM10506181
    INDEX 01 35:42:08
  TRACK 09 AUDIO
    TITLE "Something's Missing"
    PERFORMER "John Mayer Trio"
    ISRC USSM10506188
    INDEX 01 43:22:18
  TRACK 10 AUDIO
    TITLE "Daughters"
    PERFORMER "John Mayer Trio"
    ISRC USSM10506184
    INDEX 01 50:19:03
  TRACK 11 AUDIO
    TITLE "Try"
    PERFORMER "John Mayer Trio"
    ISRC USSM10506187
    INDEX 01 56:33:47


1. Раздача переоформлена в дискографию.
2. Добавлено два издания:
- 2012 - John Mayer - Born and Raised (USA, Columbia, 88691976062)
- 2013 - John Mayer - Paradise Valley (EU, Poland, Columbia, 88883756482)
2. Переименованы папки, подправлены некоторые сканы (выполнено кадрирование и выравнивание по горизонту), некоторые сканы заменены на более качественные.
3. Повторно выполнены рипы всех изданий, для проверки по базе AccurateRip.
Для тех кто уже скачал. Легче удалить старое и скачать снова.

Правила, инструкции, FAQ!!!
Торрент  Добавлен [26 мар 2019, 18:41] Скачать торрент Магнет ссылка
Скачать торрент
[ Размер 30.88 КБ / Просмотров 3 ]

Статус
Проверен 
 
Размер  2.95 ГБ
Приватный: Нет (DHT включён)
.torrent скачан  0
 


     Отправить личное сообщение
   
Страница 1 из 1
Показать сообщения за:  Поле сортировки  
Начать новую тему Ответить на тему


Сейчас этот форум просматривают: нет зарегистрированных пользователей и гости: 0


Вы не можете начинать темы
Вы не можете отвечать на сообщения
Вы не можете редактировать свои сообщения
Вы не можете удалять свои сообщения
Вы не можете добавлять вложения

Перейти:  
cron