Начать новую тему Ответить на тему
Статистика раздачи
Размер: 237.74 МБ | Добавлен: 26 мар 2019, 20:09 | Скачали: 0
Сидеров: 0  [0 байт/сек]    Личеров: 0  [0 байт/сек]
Пред. тема | След. тема 

Автор
Сообщение

СообщениеДобавлено: 26 мар 2019, 20:09 

Ответить с цитатой 

Billie Myers / Am I Here Yet? (Return To Sender)
Жанр: Pop Rock
Год издания: 2000
Издатель (лейбл): Universal Records
Номер по каталогу: 158 151-2
Аудиокодек: FLAC (*.flac)
Тип рипа: tracks+.cue
Битрейт аудио: lossless
Продолжительность: 21:37
Источник (релизер): собственный рип
Наличие сканов в содержимом раздачи: да
Треклист:
01. Billie Myers - Am I Here Yet? (Return To Sender) (Short Edit Mix) [04:01]
02. Billie Myers - Am I Here Yet? (Return To Sender) (Junior's Marathon Mix) [09:43]
03. Billie Myers - Am I Here Yet? (Return To Sender) (Instrumental) [04:02]
04. Billie Myers - You Send Me Flying (Radio Mix) [03:49]
Код:
Exact Audio Copy V1.0 beta 3 from 29. August 2011
EAC extraction logfile from 10. December 2011, 23:03
Billie Myers / Am I Here Yet? (Return To Sender)
Used drive  : ASUS    DRW-2014L1   Adapter: 0  ID: 1
Read mode               : Secure
Utilize accurate stream : Yes
Defeat audio cache      : Yes
Make use of C2 pointers : No
Read offset correction                      : 6
Overread into Lead-In and Lead-Out          : No
Fill up missing offset samples with silence : Yes
Delete leading and trailing silent blocks   : No
Null samples used in CRC calculations       : Yes
Used interface                              : Native Win32 interface for Win NT & 2000
Gap handling                                : Appended to previous track
Used output format              : User Defined Encoder
Selected bitrate                : 128 kBit/s
Quality                         : High
Add ID3 tag                     : No
Command line compressor         : C:\Program Files (x86)\Exact Audio Copy\Flac\flac.exe
Additional command line options : -8 -V -T "ARTIST=%artist%" -T "TITLE=%title%" -T "ALBUM=%albumtitle%" -T "DATE=%year%" -T "TRACKNUMBER=%tracknr%" -T "GENRE=%genre%" -T "COMMENT=ripped by Andy aka yetiisyou" %source%
TOC of the extracted CD
     Track |   Start  |  Length  | Start sector | End sector
    ---------------------------------------------------------
        1  |  0:00.00 |  4:01.62 |         0    |    18136
        2  |  4:01.62 |  9:43.60 |     18137    |    61921
        3  | 13:45.47 |  4:02.18 |     61922    |    80089
        4  | 17:47.65 |  3:49.42 |     80090    |    97306
Track  1
     Filename E:\!Rips\Billie Myers – Am I Here Yet (Return To Sender) [Universal Records – 158 151-2] [2000]\01 - Am I Here Yet (Return To Sender) (Short Edit Mix).wav
     Pre-gap length  0:00:02.00
     Peak level 100.0 %
     Extraction speed 4.9 X
     Track quality 100.0 %
     Test CRC 38CC1C89
     Copy CRC 38CC1C89
     Track not present in AccurateRip database
     Copy OK
Track  2
     Filename E:\!Rips\Billie Myers – Am I Here Yet (Return To Sender) [Universal Records – 158 151-2] [2000]\02 - Am I Here Yet (Return To Sender) (Junior's Marathon Mix).wav
     Peak level 98.8 %
     Extraction speed 6.2 X
     Track quality 100.0 %
     Test CRC 6D6997F6
     Copy CRC 6D6997F6
     Track not present in AccurateRip database
     Copy OK
Track  3
     Filename E:\!Rips\Billie Myers – Am I Here Yet (Return To Sender) [Universal Records – 158 151-2] [2000]\03 - Am I Here Yet (Return To Sender) (Instrumental).wav
     Peak level 99.9 %
     Extraction speed 6.4 X
     Track quality 100.0 %
     Test CRC 97B9264B
     Copy CRC 97B9264B
     Track not present in AccurateRip database
     Copy OK
Track  4
     Filename E:\!Rips\Billie Myers – Am I Here Yet (Return To Sender) [Universal Records – 158 151-2] [2000]\04 - You Send Me Flying (Radio Mix).wav
     Peak level 98.8 %
     Extraction speed 6.7 X
     Track quality 100.0 %
     Test CRC 7A3FD914
     Copy CRC 7A3FD914
     Track not present in AccurateRip database
     Copy OK
None of the tracks are present in the AccurateRip database
No errors occurred
End of status report
---- CUETools DB Plugin V2.1.3
[CTDB TOCID: 9SEv.gz0SkS2y8SqIA0pSSaT2kM-] disk not present in database, Submit result: 9SEv.gz0SkS2y8SqIA0pSSaT2kM- has been uploaded
==== Log checksum 988F18665F01859CCAD162EBBFFE3E59FD314F513C56FCCD84B95D5D975D9D71 ====
Код:
REM DATE 2000
REM DISCID 2C051104
REM COMMENT "ExactAudioCopy v1.0b3"
PERFORMER "Billie Myers"
TITLE "Am I Here Yet? (Return To Sender)"
FILE "01 - Am I Here Yet (Return To Sender) (Short Edit Mix).wav" WAVE
  TRACK 01 AUDIO
    TITLE "Am I Here Yet? (Return To Sender) (Short Edit Mix)"
    PERFORMER "Billie Myers"
    ISRC H2Ln10000198
    INDEX 01 00:00:00
FILE "02 - Am I Here Yet (Return To Sender) (Junior's Marathon Mix).wav" WAVE
  TRACK 02 AUDIO
    TITLE "Am I Here Yet? (Return To Sender) (Junior's Marathon Mix)"
    PERFORMER "Billie Myers"
    ISRC H2Ln10000388
    INDEX 01 00:00:00
FILE "03 - Am I Here Yet (Return To Sender) (Instrumental).wav" WAVE
  TRACK 03 AUDIO
    TITLE "Am I Here Yet? (Return To Sender) (Instrumental)"
    PERFORMER "Billie Myers"
    ISRC H2Ln10000388
    INDEX 01 00:00:00
FILE "04 - You Send Me Flying (Radio Mix).wav" WAVE
  TRACK 04 AUDIO
    TITLE "You Send Me Flying (Radio Mix)"
    PERFORMER "Billie Myers"
    ISRC H2Ln10000460
    INDEX 01 00:00:00
Правила, инструкции, FAQ!!!
Торрент  Добавлен [26 мар 2019, 20:09] Скачать торрент Магнет ссылка
Скачать торрент
[ Размер 19.75 КБ / Просмотров 2 ]

Статус
Проверен 
 
Размер  237.74 МБ
Приватный: Нет (DHT включён)
.torrent скачан  0
 


     Отправить личное сообщение
   
Страница 1 из 1
Показать сообщения за:  Поле сортировки  
Начать новую тему Ответить на тему


Сейчас этот форум просматривают: нет зарегистрированных пользователей и гости: 0


Вы не можете начинать темы
Вы не можете отвечать на сообщения
Вы не можете редактировать свои сообщения
Вы не можете удалять свои сообщения
Вы не можете добавлять вложения

Перейти:  
cron