Начать новую тему Ответить на тему
Статистика раздачи
Размер: 214.09 МБ | Добавлен: 26 мар 2019, 18:55 | Скачали: 0
Сидеров: 0  [0 байт/сек]    Личеров: 0  [0 байт/сек]
Пред. тема | След. тема 

Автор
Сообщение

СообщениеДобавлено: 26 мар 2019, 18:55 

Ответить с цитатой 

Big Chief / Call My Number!
Жанр: Pop-Rock
Страна-производитель диска (релиза): Japan
Год издания: 1991
Издатель (лейбл): Teichiku Records Co.Ltd.
Номер по каталогу: TECP-25083
Страна исполнителя (группы): Spain
Аудиокодек: FLAC (*.flac)
Тип рипа: tracks+.cue
Битрейт аудио: lossless
Продолжительность: 0:33:57.
Источник (релизер): clustert
Наличие сканов в содержимом раздачи: да
Треклист:
01. Call My Number [0:03:22.05]
02. The Change [0:03:44.60]
03. Move Over [0:04:21.02]
04. So Close [0:05:54.18]
05. Waiting Game Blues [0:02:59.65]
06. Smack Dab In The Middle [0:04:28.20]
07. Midnight Believer [0:04:57.17]
08. Everybody Knows [0:04:10.35]
Код:
Exact Audio Copy V1.0 beta 3 from 29. August 2011
Отчёт EAC об извлечении, выполненном 27. февраля 2015, 0:27
Big Chief / Call My Number!
Дисковод: ASUS    DRW-1814BLT   Adapter: 4  ID: 0
Режим чтения                 : Достоверность
Использование точного потока : Да
Отключение кэша аудио        : Да
Использование указателей C2  : Нет
Коррекция смещения при чтении                     : 6
Способность читать области Lead-in и Lead-out     : Нет
Заполнение пропущенных сэмплов тишиной            : Да
Удаление блоков с тишиной в начале и конце        : Нет
При вычислениях CRC использовались нулевые сэмплы : Да
Интерфейс                                         : Встроенный Win32-интерфейс для Win NT/2000
Обработка зазоров                                 : Добавлено к предыдущему треку
Выходной формат          : Пользовательский кодировщик
Выбранный битрейт        : 128 kBit/s
Качество                 : Высокий
Добавление ID3-тега      : Нет
Утилита сжатия           : C:\Program Files\Exact Audio Copy\Flac\flac.exe
Дополнительные параметры :  -V -8 -T "Genre=%genre%" -T "Artist=%artist%" -T "Title=%title%" -T "Album=%albumtitle%" -T "Date=%year%" -T "Tracknumber=%tracknr%" -T "Comment=EAC1.0b2 FLAC -8" %source%
TOC извлечённого CD
     Трек |   Старт  | Длительность | Начальный сектор | Конечный сектор
    ---------------------------------------------------------------------
       1  |  0:00.00 |    3:22.05   |           0      |      15154
       2  |  3:22.05 |    3:44.60   |       15155      |      32014
       3  |  7:06.65 |    4:21.02   |       32015      |      51591
       4  | 11:27.67 |    5:54.18   |       51592      |      78159
       5  | 17:22.10 |    2:59.65   |       78160      |      91649
       6  | 20:22.00 |    4:28.20   |       91650      |     111769
       7  | 24:50.20 |    4:57.17   |      111770      |     134061
       8  | 29:47.37 |    4:10.35   |      134062      |     152846
Трек  1
     Имя файла R:\Раздача 39\Big Chief - 1991 - Call My Number!\01 Call My Number.wav
     Длина предзазора  0:00:02.00
     Пиковый уровень 76.9 %
     Скорость извлечения 4.7 X
     Качество трека 100.0 %
     CRC теста 33A9688D
     CRC копии 33A9688D
     Трек не обнаружен в базе AccurateRip
     Копирование... OK
Трек  2
     Имя файла R:\Раздача 39\Big Chief - 1991 - Call My Number!\02 The Change.wav
     Пиковый уровень 98.1 %
     Скорость извлечения 5.2 X
     Качество трека 100.0 %
     CRC теста 849BB9AC
     CRC копии 849BB9AC
     Трек не обнаружен в базе AccurateRip
     Копирование... OK
Трек  3
     Имя файла R:\Раздача 39\Big Chief - 1991 - Call My Number!\03 Move Over.wav
     Пиковый уровень 98.9 %
     Скорость извлечения 5.7 X
     Качество трека 100.0 %
     CRC теста 5FC9C637
     CRC копии 5FC9C637
     Трек не обнаружен в базе AccurateRip
     Копирование... OK
Трек  4
     Имя файла R:\Раздача 39\Big Chief - 1991 - Call My Number!\04 So Close.wav
     Пиковый уровень 99.8 %
     Скорость извлечения 4.7 X
     Качество трека 99.9 %
     CRC теста C0611080
     CRC копии C0611080
     Трек не обнаружен в базе AccurateRip
     Копирование... OK
Трек  5
     Имя файла R:\Раздача 39\Big Chief - 1991 - Call My Number!\05 Waiting Game Blues.wav
     Пиковый уровень 100.0 %
     Скорость извлечения 6.1 X
     Качество трека 100.0 %
     CRC теста 84595DD4
     CRC копии 84595DD4
     Трек не обнаружен в базе AccurateRip
     Копирование... OK
Трек  6
     Имя файла R:\Раздача 39\Big Chief - 1991 - Call My Number!\06 Smack Dab In The Middle.wav
     Пиковый уровень 99.3 %
     Скорость извлечения 4.9 X
     Качество трека 99.9 %
     CRC теста 35343AE6
     CRC копии 35343AE6
     Трек не обнаружен в базе AccurateRip
     Копирование... OK
Трек  7
     Имя файла R:\Раздача 39\Big Chief - 1991 - Call My Number!\07 Midnight Believer.wav
     Пиковый уровень 95.7 %
     Скорость извлечения 7.3 X
     Качество трека 100.0 %
     CRC теста 396A9465
     CRC копии 396A9465
     Трек не обнаружен в базе AccurateRip
     Копирование... OK
Трек  8
     Имя файла R:\Раздача 39\Big Chief - 1991 - Call My Number!\08 Everybody Knows.wav
     Пиковый уровень 69.8 %
     Скорость извлечения 7.4 X
     Качество трека 100.0 %
     CRC теста E9E1EECF
     CRC копии E9E1EECF
     Трек не обнаружен в базе AccurateRip
     Копирование... OK
Ни одного трека нет в базе AccurateRip
Ошибок не произошло
Конец отчёта
==== Контрольная сумма отчёта E5D1E939895824C3E14AB0059428AF12E1887338F7AB25FC13C9842E33254E6E ====
Код:
REM GENRE Rock
REM DATE 1991
REM DISCID 6807F508
REM COMMENT "ExactAudioCopy v1.0b3"
PERFORMER "Big Chief"
TITLE "Call My Number!"
FILE "01 Call My Number.wav" WAVE
  TRACK 01 AUDIO
    TITLE "Call My Number"
    PERFORMER "Big Chief"
    ISRC 000000000000
    INDEX 01 00:00:00
FILE "02 The Change.wav" WAVE
  TRACK 02 AUDIO
    TITLE "The Change"
    PERFORMER "Big Chief"
    ISRC 000000000000
    INDEX 01 00:00:00
FILE "03 Move Over.wav" WAVE
  TRACK 03 AUDIO
    TITLE "Move Over"
    PERFORMER "Big Chief"
    ISRC 000000000000
    INDEX 01 00:00:00
FILE "04 So Close.wav" WAVE
  TRACK 04 AUDIO
    TITLE "So Close"
    PERFORMER "Big Chief"
    ISRC 000000000000
    INDEX 01 00:00:00
FILE "05 Waiting Game Blues.wav" WAVE
  TRACK 05 AUDIO
    TITLE "Waiting Game Blues"
    PERFORMER "Big Chief"
    ISRC 000000000000
    INDEX 01 00:00:00
FILE "06 Smack Dab In The Middle.wav" WAVE
  TRACK 06 AUDIO
    TITLE "Smack Dab In The Middle"
    PERFORMER "Big Chief"
    ISRC 000000000000
    INDEX 01 00:00:00
FILE "07 Midnight Believer.wav" WAVE
  TRACK 07 AUDIO
    TITLE "Midnight Believer"
    PERFORMER "Big Chief"
    ISRC 000000000000
    INDEX 01 00:00:00
FILE "08 Everybody Knows.wav" WAVE
  TRACK 08 AUDIO
    TITLE "Everybody Knows"
    PERFORMER "Big Chief"
    ISRC 000000000000
    INDEX 01 00:00:00
Правила, инструкции, FAQ!!!
Торрент  Добавлен [26 мар 2019, 18:55] Скачать торрент Магнет ссылка
Скачать торрент
[ Размер 18.55 КБ / Просмотров 1 ]

Статус
Проверен 
 
Размер  214.09 МБ
Приватный: Нет (DHT включён)
.torrent скачан  0
 


     Отправить личное сообщение
   
Страница 1 из 1
Показать сообщения за:  Поле сортировки  
Начать новую тему Ответить на тему


Сейчас этот форум просматривают: нет зарегистрированных пользователей и гости: 0


Вы не можете начинать темы
Вы не можете отвечать на сообщения
Вы не можете редактировать свои сообщения
Вы не можете удалять свои сообщения
Вы не можете добавлять вложения

Перейти:  
cron