Начать новую тему Ответить на тему
Статистика раздачи
Размер: 248.4 МБ | Добавлен: 26 мар 2019, 19:17 | Скачали: 0
Сидеров: 0  [0 байт/сек]    Личеров: 0  [0 байт/сек]
Пред. тема | След. тема 

Автор
Сообщение

СообщениеДобавлено: 26 мар 2019, 19:17 

Ответить с цитатой 

Best Of Brewer & Shipley
[img=right][/img]
Жанр: Pop-rock
Год выпуска диска: 1989
Производитель диска: Buddah Records inc.
Аудио кодек: FLAC
Тип рипа: image+.cue
Битрейт аудио: lossless
Продолжительность: 43,35
Трэклист:
01. Brewer & Shipley - One Toke Over the Line
02. Brewer & Shipley - Song from Platte River
03. Brewer & Shipley - Shake Off the Demon
04. Brewer & Shipley - Ruby On the Morning
05. Brewer & Shipley - Oh Mommy
06. Brewer & Shipley - Don't Wait to Die in Georgia
07. Brewer & Shipley - Tarkio Road
08. Brewer & Shipley - Witchi-Tai-To
09. Brewer & Shipley - One By One
10. Brewer & Shipley - Rock Me On the Water
11. Brewer & Shipley - All Along the Watchtower
12. Brewer & Shipley - Lady Like You
Exact Audio Copy V0.99 prebeta 3 from 28. July 2007
EAC extraction logfile from 2. December 2007, 7:39
Brewer & Shipley / The Best Of Brewer & Shipley
Used drive : SONY DVD RW DRU-720A Adapter: 1 ID: 1
Read mode : Secure
Utilize accurate stream : Yes
Defeat audio cache : Yes
Make use of C2 pointers : Yes
Read offset correction : 12
Overread into Lead-In and Lead-Out : No
Fill up missing offset samples with silence : Yes
Delete leading and trailing silent blocks : No
Null samples used in CRC calculations : No
Used interface : Native Win32 interface for Win NT & 2000
Used output format : User Defined Encoder
Selected bitrate : 768 kBit/s
Quality : High
Add ID3 tag : No
Command line compressor : C:\Program Files\Exact Audio Copy\FLAC\FLAC.EXE
Additional command line options : -6 -V -T "ARTIST=%a" -T "TITLE=%t" -T "ALBUM=%g" -T "DATE=%y" -T "TRACKNUMBER=%n" -T "GENRE=%m" -T "COMMENT=%e" %s -o %d
TOC of the extracted CD
Track | Start | Length | Start sector | End sector
---------------------------------------------------------
1 | 0:00.33 | 3:23.25 | 33 | 15282
2 | 3:23.58 | 3:21.25 | 15283 | 30382
3 | 6:45.08 | 3:16.00 | 30383 | 45082
4 | 10:01.08 | 2:20.00 | 45083 | 55582
5 | 12:21.08 | 3:06.62 | 55583 | 69594
6 | 15:27.70 | 3:51.13 | 69595 | 86932
7 | 19:19.08 | 4:35.50 | 86933 | 107607
8 | 23:54.58 | 6:58.25 | 107608 | 138982
9 | 30:53.08 | 3:08.25 | 138983 | 153107
10 | 34:01.33 | 4:06.00 | 153108 | 171557
11 | 38:07.33 | 3:21.00 | 171558 | 186632
12 | 41:28.33 | 2:07.00 | 186633 | 196157
Range status and errors
Selected range
Filename C:\Documents and Settings\Thomas Austin\My Documents\Downloads\Avax\The Best Of Brewer & Shipley\The Best Of Brewer & Shipley.wav
Peak level 72.2 %
Range quality 100.0 %
Copy CRC A9CD9EBB
Copy OK
No errors occurred
AccurateRip summary
Track 1 not present in database
Track 2 not present in database
Track 3 not present in database
Track 4 not present in database
Track 5 not present in database
Track 6 not present in database
Track 7 not present in database
Track 8 not present in database
Track 9 not present in database
Track 10 not present in database
Track 11 not present in database
Track 12 not present in database
None of the tracks are present in the AccurateRip database
End of status report
Правила, инструкции, FAQ!!!
Торрент  Добавлен [26 мар 2019, 19:17] Скачать торрент Магнет ссылка
Скачать торрент
[ Размер 20.25 КБ / Просмотров 8 ]

Статус
Проверен 
 
Размер  248.4 МБ
Приватный: Нет (DHT включён)
.torrent скачан  0
 


     Отправить личное сообщение
   
Страница 1 из 1
Показать сообщения за:  Поле сортировки  
Начать новую тему Ответить на тему


Сейчас этот форум просматривают: нет зарегистрированных пользователей и гости: 0


Вы не можете начинать темы
Вы не можете отвечать на сообщения
Вы не можете редактировать свои сообщения
Вы не можете удалять свои сообщения
Вы не можете добавлять вложения

Перейти:  
cron