Начать новую тему Ответить на тему
Статистика раздачи
Размер: 269.38 МБ | Добавлен: 26 мар 2019, 18:41 | Скачали: 0
Сидеров: 0  [0 байт/сек]    Личеров: 0  [0 байт/сек]
Пред. тема | След. тема 

Автор
Сообщение

СообщениеДобавлено: 26 мар 2019, 18:41 

Ответить с цитатой 

Bernward Büker / Störtebüker
Жанр: Pop Rock
Носитель: CD
Страна-производитель диска: Germany
Год издания: 2005
Издатель (лейбл): Inferno/Hassel
Страна: Germany
Аудиокодек: FLAC (*.flac)
Тип рипа: image+.cue
Битрейт аудио: lossless
Продолжительность: 00:36:42
Источник (релизер): собственный диск
Наличие сканов в содержимом раздачи: нет
Треклист:
01. Piratenshow
02. Piratenparty
03. The drunken Pirat
04. Ich bin Pirat
05. Komm mit uns
06. Bleib hier
07. Piraten der Liebe
08. Wir segeln nach Hawaii
09. Eisbär
10. Wir lieben die Stürme
11. Piratensehnsucht
Код:
Exact Audio Copy V1.0 beta 3 from 29. August 2011
Отчёт EAC об извлечении, выполненном 19. мая 2014, 15:30
Bernward Büker / Störtebüker
Дисковод: PIONEER BD-RW   BDR-209D   Adapter: 0  ID: 0
Режим чтения                 : Достоверность
Использование точного потока : Да
Отключение кэша аудио        : Да
Использование указателей C2  : Нет
Коррекция смещения при чтении                     : 667
Способность читать области Lead-in и Lead-out     : Нет
Заполнение пропущенных сэмплов тишиной            : Да
Удаление блоков с тишиной в начале и конце        : Нет
При вычислениях CRC использовались нулевые сэмплы : Да
Интерфейс                                         : Встроенный Win32-интерфейс для Win NT/2000
Выходной формат          : Пользовательский кодировщик
Выбранный битрейт        : 128 kBit/s
Качество                 : Высокий
Добавление ID3-тега      : Да
Утилита сжатия           : C:\Program Files (x86)\Exact Audio Copy\Flac\flac.exe
Дополнительные параметры : -V -8 -T "Date=%year%" -T "Genre=%genre%" %source%
TOC извлечённого CD
     Трек |   Старт  | Длительность | Начальный сектор | Конечный сектор
    ---------------------------------------------------------------------
       1  |  0:00.00 |    3:45.70   |           0      |      16944
       2  |  3:45.70 |    3:40.52   |       16945      |      33496
       3  |  7:26.47 |    3:01.60   |       33497      |      47131
       4  | 10:28.32 |    3:26.39   |       47132      |      62620
       5  | 13:54.71 |    4:07.10   |       62621      |      81155
       6  | 18:02.06 |    3:06.56   |       81156      |      95161
       7  | 21:08.62 |    3:48.21   |       95162      |     112282
       8  | 24:57.08 |    3:36.09   |      112283      |     128491
       9  | 28:33.17 |    3:32.41   |      128492      |     144432
      10  | 32:05.58 |    3:10.68   |      144433      |     158750
      11  | 35:16.51 |    1:25.35   |      158751      |     165160
Характеристики диапазона извлечения и сообщения об ошибках
Выбранный диапазон
     Имя файла D:\Flac\Новая папка\Bernward Büker - Störtebüker.wav
     Пиковый уровень 99.2 %
     Скорость извлечения 6.8 X
     Качество диапазона 99.9 %
     CRC теста 8006186D
     CRC копии 8006186D
     Копирование... OK
Ошибок не произошло
AccurateRip: сводка
Трек  1  отсутствует в базе данных
Трек  2  отсутствует в базе данных
Трек  3  отсутствует в базе данных
Трек  4  отсутствует в базе данных
Трек  5  отсутствует в базе данных
Трек  6  отсутствует в базе данных
Трек  7  отсутствует в базе данных
Трек  8  отсутствует в базе данных
Трек  9  отсутствует в базе данных
Трек 10  отсутствует в базе данных
Трек 11  отсутствует в базе данных
Ни одного трека нет в базе AccurateRip
Конец отчёта
==== Контрольная сумма отчёта 7460C33BBD12487AC8CCF3A2569FACF0F1348E7C003DF2AD83C47757123565C4 ====
Правила, инструкции, FAQ!!!
Торрент  Добавлен [26 мар 2019, 18:41] Скачать торрент Магнет ссылка
Скачать торрент
[ Размер 11.23 КБ / Просмотров 2 ]

Статус
Проверен 
 
Размер  269.38 МБ
Приватный: Нет (DHT включён)
.torrent скачан  0
 


     Отправить личное сообщение
   
Страница 1 из 1
Показать сообщения за:  Поле сортировки  
Начать новую тему Ответить на тему


Сейчас этот форум просматривают: нет зарегистрированных пользователей и гости: 0


Вы не можете начинать темы
Вы не можете отвечать на сообщения
Вы не можете редактировать свои сообщения
Вы не можете удалять свои сообщения
Вы не можете добавлять вложения

Перейти:  
cron