Начать новую тему Ответить на тему
Статистика раздачи
Размер: 263.93 МБ | Добавлен: 26 мар 2019, 20:30 | Скачали: 1
Сидеров: 109  [0 байт/сек]    Личеров: 10  [0 байт/сек]
Пред. тема | След. тема 

Автор
Сообщение

СообщениеДобавлено: 26 мар 2019, 20:30 

Ответить с цитатой 

Ben Rector - Brand New
Жанр: Pop Rock
Носитель: CD
Год издания: 2015
Издатель (лейбл): Aptly Named Recordings
Страна исполнителя (группы): US
Аудиокодек: FLAC (*.flac)
Тип рипа: tracks+.cue
Битрейт аудио: lossless
Продолжительность: 00:43:22
Источник (релизер): WRZMusic (error404)
Наличие сканов в содержимом раздачи: нет


01. Make Something Beautiful [1:34]
02. Brand New [4:04]
03. Paris [3:08]
04. Favorite Song [3:40]
05. The Men That Drive Me Places [4:18]
06. Fear [3:26]
07. Note To Self [3:02]
08. Like The World Is Going To End [3:30]
09. Crazy [4:10]
10. Almost Home [4:28]
11. 30,000 Feet [4:17]
12. More Like Love [3:47]
Код:
X Lossless Decoder version 20141129a (148.2)
XLD extraction logfile from 2015-08-31 17:13:01 -0400
Ben Rector / Brand New
Used drive : HL-DT-ST DVDRW  GS31N (revision TA17)
Media type : Pressed CD
Ripper mode             : XLD Secure Ripper
Disable audio cache     : OK for the drive with a cache less than 1375KiB
Make use of C2 pointers : NO
Read offset correction  : 667
Max retry count         : 20
Gap status              : Analyzed, Appended (except HTOA)
TOC of the extracted CD
     Track |   Start  |  Length  | Start sector | End sector
    ---------------------------------------------------------
        1  | 00:00:00 | 01:33:41 |         0    |     7015
        2  | 01:33:41 | 04:03:70 |      7016    |    25310
        3  | 05:37:36 | 03:07:51 |     25311    |    39386
        4  | 08:45:12 | 03:40:35 |     39387    |    55921
        5  | 12:25:47 | 04:17:44 |     55922    |    75240
        6  | 16:43:16 | 03:26:08 |     75241    |    90698
        7  | 20:09:24 | 03:01:44 |     90699    |   104317
        8  | 23:10:68 | 03:30:09 |    104318    |   120076
        9  | 26:41:02 | 04:09:61 |    120077    |   138812
       10  | 30:50:63 | 04:27:59 |    138813    |   158896
       11  | 35:18:47 | 04:16:70 |    158897    |   178166
       12  | 39:35:42 | 03:46:51 |    178167    |   195167
AccurateRip Summary
    Disc not found in AccurateRip DB.
All Tracks
    Album gain               : -8.83 dB
    Peak                     : 1.000000
    Statistics
        Read error                           : 0
        Jitter error (maybe fixed)           : 0
        Retry sector count                   : 0
        Damaged sector count                 : 0
Track 01
    Filename : /Users/pete/Desktop/Ben Rector - Brand New/Ben Rector - Brand New (2015) [FLAC]/01 Make Something Beautiful.flac
    Pre-gap length : 00:02:00
    Track gain               : -5.75 dB
    Peak                     : 0.990417
    CRC32 hash (test run)    : 7AB48C98
    CRC32 hash               : 7AB48C98
    CRC32 hash (skip zero)   : 81D4E83B
    AccurateRip v1 signature : 3725AE08
    AccurateRip v2 signature : 5C8F10ED
        ->Track not present in AccurateRip database.
    Statistics
        Read error                           : 0
        Jitter error (maybe fixed)           : 0
        Retry sector count                   : 0
        Damaged sector count                 : 0
Track 02
    Filename : /Users/pete/Desktop/Ben Rector - Brand New/Ben Rector - Brand New (2015) [FLAC]/02 Brand New.flac
    Track gain               : -9.36 dB
    Peak                     : 0.991272
    CRC32 hash (test run)    : DB546CBD
    CRC32 hash               : DB546CBD
    CRC32 hash (skip zero)   : F5CCA44A
    AccurateRip v1 signature : D1EA2863
    AccurateRip v2 signature : 0B4C8784
        ->Track not present in AccurateRip database.
    Statistics
        Read error                           : 0
        Jitter error (maybe fixed)           : 0
        Retry sector count                   : 0
        Damaged sector count                 : 0
Track 03
    Filename : /Users/pete/Desktop/Ben Rector - Brand New/Ben Rector - Brand New (2015) [FLAC]/03 Paris.flac
    Track gain               : -7.96 dB
    Peak                     : 1.000000
    CRC32 hash (test run)    : A1E85096
    CRC32 hash               : A1E85096
    CRC32 hash (skip zero)   : BD07D9CE
    AccurateRip v1 signature : 67AE70FD
    AccurateRip v2 signature : D9309F27
        ->Track not present in AccurateRip database.
    Statistics
        Read error                           : 0
        Jitter error (maybe fixed)           : 0
        Retry sector count                   : 0
        Damaged sector count                 : 0
Track 04
    Filename : /Users/pete/Desktop/Ben Rector - Brand New/Ben Rector - Brand New (2015) [FLAC]/04 Favorite Song.flac
    Track gain               : -9.26 dB
    Peak                     : 1.000000
    CRC32 hash (test run)    : E6317436
    CRC32 hash               : E6317436
    CRC32 hash (skip zero)   : 53A3BA3C
    AccurateRip v1 signature : D6D16006
    AccurateRip v2 signature : 0B2786CB
        ->Track not present in AccurateRip database.
    Statistics
        Read error                           : 0
        Jitter error (maybe fixed)           : 0
        Retry sector count                   : 0
        Damaged sector count                 : 0
Track 05
    Filename : /Users/pete/Desktop/Ben Rector - Brand New/Ben Rector - Brand New (2015) [FLAC]/05 The Men That Drive Me Places.flac
    Pre-gap length : 00:01:28
    Track gain               : -5.36 dB
    Peak                     : 0.992493
    CRC32 hash (test run)    : 3E6F075D
    CRC32 hash               : 3E6F075D
    CRC32 hash (skip zero)   : 2D75C702
    AccurateRip v1 signature : 146AB1EC
    AccurateRip v2 signature : 38EB0D04
        ->Track not present in AccurateRip database.
    Statistics
        Read error                           : 0
        Jitter error (maybe fixed)           : 0
        Retry sector count                   : 0
        Damaged sector count                 : 0
Track 06
    Filename : /Users/pete/Desktop/Ben Rector - Brand New/Ben Rector - Brand New (2015) [FLAC]/06 Fear.flac
    Pre-gap length : 00:01:04
    Track gain               : -9.29 dB
    Peak                     : 1.000000
    CRC32 hash (test run)    : 14A94692
    CRC32 hash               : 14A94692
    CRC32 hash (skip zero)   : 587CFC36
    AccurateRip v1 signature : B500DDAD
    AccurateRip v2 signature : 4D0F3711
        ->Track not present in AccurateRip database.
    Statistics
        Read error                           : 0
        Jitter error (maybe fixed)           : 0
        Retry sector count                   : 0
        Damaged sector count                 : 0
Track 07
    Filename : /Users/pete/Desktop/Ben Rector - Brand New/Ben Rector - Brand New (2015) [FLAC]/07 Note To Self.flac
    Track gain               : -5.98 dB
    Peak                     : 0.977875
    CRC32 hash (test run)    : 12530F33
    CRC32 hash               : 12530F33
    CRC32 hash (skip zero)   : 63271B4F
    AccurateRip v1 signature : 451E71C9
    AccurateRip v2 signature : C4565972
        ->Track not present in AccurateRip database.
    Statistics
        Read error                           : 0
        Jitter error (maybe fixed)           : 0
        Retry sector count                   : 0
        Damaged sector count                 : 0
Track 08
    Filename : /Users/pete/Desktop/Ben Rector - Brand New/Ben Rector - Brand New (2015) [FLAC]/08 Like The World Is Going To End.flac
    Pre-gap length : 00:01:42
    Track gain               : -9.69 dB
    Peak                     : 1.000000
    CRC32 hash (test run)    : 58E2F3CF
    CRC32 hash               : 58E2F3CF
    CRC32 hash (skip zero)   : FCF36F1D
    AccurateRip v1 signature : 209B261E
    AccurateRip v2 signature : 897335B9
        ->Track not present in AccurateRip database.
    Statistics
        Read error                           : 0
        Jitter error (maybe fixed)           : 0
        Retry sector count                   : 0
        Damaged sector count                 : 0
Track 09
    Filename : /Users/pete/Desktop/Ben Rector - Brand New/Ben Rector - Brand New (2015) [FLAC]/09 Crazy.flac
    Pre-gap length : 00:01:34
    Track gain               : -9.24 dB
    Peak                     : 1.000000
    CRC32 hash (test run)    : 8B48F457
    CRC32 hash               : 8B48F457
    CRC32 hash (skip zero)   : 19176FFC
    AccurateRip v1 signature : E254F1EA
    AccurateRip v2 signature : D83CCDFD
        ->Track not present in AccurateRip database.
    Statistics
        Read error                           : 0
        Jitter error (maybe fixed)           : 0
        Retry sector count                   : 0
        Damaged sector count                 : 0
Track 10
    Filename : /Users/pete/Desktop/Ben Rector - Brand New/Ben Rector - Brand New (2015) [FLAC]/10 Almost Home.flac
    Pre-gap length : 00:01:30
    Track gain               : -8.47 dB
    Peak                     : 1.000000
    CRC32 hash (test run)    : 10A776D1
    CRC32 hash               : 10A776D1
    CRC32 hash (skip zero)   : 8430C696
    AccurateRip v1 signature : DC767AEB
    AccurateRip v2 signature : ADCCCDFF
        ->Track not present in AccurateRip database.
    Statistics
        Read error                           : 0
        Jitter error (maybe fixed)           : 0
        Retry sector count                   : 0
        Damaged sector count                 : 0
Track 11
    Filename : /Users/pete/Desktop/Ben Rector - Brand New/Ben Rector - Brand New (2015) [FLAC]/11 30,000 Feet.flac
    Pre-gap length : 00:01:43
    Track gain               : -6.90 dB
    Peak                     : 1.000000
    CRC32 hash (test run)    : C32E31F4
    CRC32 hash               : C32E31F4
    CRC32 hash (skip zero)   : 20074BDF
    AccurateRip v1 signature : A56CE880
    AccurateRip v2 signature : 2AF06EB3
        ->Track not present in AccurateRip database.
    Statistics
        Read error                           : 0
        Jitter error (maybe fixed)           : 0
        Retry sector count                   : 0
        Damaged sector count                 : 0
Track 12
    Filename : /Users/pete/Desktop/Ben Rector - Brand New/Ben Rector - Brand New (2015) [FLAC]/12 More Like Love.flac
    Pre-gap length : 00:02:34
    Track gain               : -6.73 dB
    Peak                     : 0.993958
    CRC32 hash (test run)    : D80B5B99
    CRC32 hash               : D80B5B99
    CRC32 hash (skip zero)   : AA26D0AE
    AccurateRip v1 signature : EEC12016
    AccurateRip v2 signature : 6F49E705
        ->Track not present in AccurateRip database.
    Statistics
        Read error                           : 0
        Jitter error (maybe fixed)           : 0
        Retry sector count                   : 0
        Damaged sector count                 : 0
No errors occurred
End of status report
-----BEGIN XLD SIGNATURE-----
zppLyoDrxTUht9RzgFp9aGBQWwarY7H2XdE0YlTfjzHI6c7Sou1GiFY3nHGDdk9SIgmAjUw4vC4ky.M3Ca7tx1ZJqBOblFjQxcPd55W
-----END XLD SIGNATURE-----
Код:
TITLE "Brand New"
PERFORMER "Ben Rector"
CATALOG 0804837087438
REM GENRE "Pop"
REM DATE "2015"
REM DISCNUMBER 1
REM TOTALDISCS 1
REM DISCID 8B0A2A0C
REM REPLAYGAIN_ALBUM_GAIN -8.83 dB
REM REPLAYGAIN_ALBUM_PEAK 1.000000
FILE "01 Make Something Beautiful.flac" WAVE
  TRACK 01 AUDIO
    TITLE "Make Something Beautiful"
    SONGWRITER "Ben Rector"
    ISRC QMEMQ1500030
    REM REPLAYGAIN_TRACK_GAIN -5.75 dB
    REM REPLAYGAIN_TRACK_PEAK 0.990417
    INDEX 01 00:00:00
FILE "02 Brand New.flac" WAVE
  TRACK 02 AUDIO
    TITLE "Brand New"
    SONGWRITER "Abe Stoklasa/David Hodges"
    ISRC QMEMQ1500031
    REM REPLAYGAIN_TRACK_GAIN -9.36 dB
    REM REPLAYGAIN_TRACK_PEAK 0.991272
    INDEX 01 00:00:00
FILE "03 Paris.flac" WAVE
  TRACK 03 AUDIO
    TITLE "Paris"
    SONGWRITER "Abe Stoklasa"
    ISRC QMEMQ1500032
    REM REPLAYGAIN_TRACK_GAIN -7.96 dB
    REM REPLAYGAIN_TRACK_PEAK 1.000000
    INDEX 01 00:00:00
FILE "04 Favorite Song.flac" WAVE
  TRACK 04 AUDIO
    TITLE "Favorite Song"
    SONGWRITER "Jess Cates"
    ISRC QMEMQ1500033
    REM REPLAYGAIN_TRACK_GAIN -9.26 dB
    REM REPLAYGAIN_TRACK_PEAK 1.000000
    INDEX 01 00:00:00
  TRACK 05 AUDIO
    TITLE "The Men That Drive Me Places"
    SONGWRITER "Ben Rector"
    ISRC QMEMQ1500034
    REM REPLAYGAIN_TRACK_GAIN -5.36 dB
    REM REPLAYGAIN_TRACK_PEAK 0.992493
    INDEX 00 03:39:07
FILE "05 The Men That Drive Me Places.flac" WAVE
    INDEX 01 00:00:00
  TRACK 06 AUDIO
    TITLE "Fear"
    SONGWRITER "Ben Rector"
    ISRC QMEMQ1500035
    REM REPLAYGAIN_TRACK_GAIN -9.29 dB
    REM REPLAYGAIN_TRACK_PEAK 1.000000
    INDEX 00 04:16:40
FILE "06 Fear.flac" WAVE
    INDEX 01 00:00:00
FILE "07 Note To Self.flac" WAVE
  TRACK 07 AUDIO
    TITLE "Note To Self"
    SONGWRITER "Ben Rector"
    ISRC QMEMQ1500036
    REM REPLAYGAIN_TRACK_GAIN -5.98 dB
    REM REPLAYGAIN_TRACK_PEAK 0.977875
    INDEX 01 00:00:00
  TRACK 08 AUDIO
    TITLE "Like The World Is Going To End"
    SONGWRITER "Ben Rector"
    ISRC QMEMQ1500037
    REM REPLAYGAIN_TRACK_GAIN -9.69 dB
    REM REPLAYGAIN_TRACK_PEAK 1.000000
    INDEX 00 03:00:02
FILE "08 Like The World Is Going To End.flac" WAVE
    INDEX 01 00:00:00
  TRACK 09 AUDIO
    TITLE "Crazy"
    SONGWRITER "Matthew Thiessen/Emily Wright"
    ISRC QMEMQ1500038
    REM REPLAYGAIN_TRACK_GAIN -9.24 dB
    REM REPLAYGAIN_TRACK_PEAK 1.000000
    INDEX 00 03:28:50
FILE "09 Crazy.flac" WAVE
    INDEX 01 00:00:00
  TRACK 10 AUDIO
    TITLE "Almost Home"
    SONGWRITER "Ben Rector"
    ISRC QMEMQ1500040
    REM REPLAYGAIN_TRACK_GAIN -8.47 dB
    REM REPLAYGAIN_TRACK_PEAK 1.000000
    INDEX 00 04:08:31
FILE "10 Almost Home.flac" WAVE
    INDEX 01 00:00:00
  TRACK 11 AUDIO
    TITLE "30,000 Feet"
    SONGWRITER "Jeff Pardo"
    ISRC QMEMQ1500041
    REM REPLAYGAIN_TRACK_GAIN -6.90 dB
    REM REPLAYGAIN_TRACK_PEAK 1.000000
    INDEX 00 04:26:16
FILE "11 30,000 Feet.flac" WAVE
    INDEX 01 00:00:00
  TRACK 12 AUDIO
    TITLE "More Like Love"
    SONGWRITER "Ben Rector"
    ISRC QMEMQ1500042
    REM REPLAYGAIN_TRACK_GAIN -6.73 dB
    REM REPLAYGAIN_TRACK_PEAK 0.993958
    INDEX 00 04:14:36
FILE "12 More Like Love.flac" WAVE
    INDEX 01 00:00:00
Код:
-----------------------
DON'T MODIFY THIS FILE
-----------------------
PERFORMER: auCDtect Task Manager, ver. 1.5.1RC6 build 1.5.1.7
Copyright (c) 2008-2010 y-soft. All rights reserved
[url=http://y-soft.org]http://y-soft.org[/url]
ANALYZER: auCDtect: CD records authenticity detector, version 0.8.2
Copyright (c) 2004 Oleg Berngardt. All rights reserved.
Copyright (c) 2004 Alexander Djourik. All rights reserved.
FILE: 01 Make Something Beautiful.flac
  Size: 8062050 Hash: 9BCCB7F2C76A9F8ED2DC1296EED12948 Accuracy: -m8
  Conclusion: CDDA 100%
  Signature: EEC32D8D75788ADC36E6F668022080D9D141CEDB
FILE: 02 Brand New.flac
  Size: 29285582 Hash: 49C007CC3FD0F84299031BC41E6D1A91 Accuracy: -m8
  Conclusion: CDDA 100%
  Signature: 3DC57D06CF4B2656E6F2F966246E8F7B081C1F92
FILE: 03 Paris.flac
  Size: 19463125 Hash: 89EB0BDCB54FC5F99C50B22596E2DB04 Accuracy: -m8
  Conclusion: CDDA 99%
  Signature: FF71836C715CA7F25A8BBB6CF5B4BA72E0DC67A7
FILE: 04 Favorite Song.flac
  Size: 26992248 Hash: DA97C707B0A00DA22B2CD73987CCF4F0 Accuracy: -m8
  Conclusion: CDDA 100%
  Signature: F19626D41EC3A60EF973F0BC034D238289CC66D0
FILE: 05 The Men That Drive Me Places.flac
  Size: 20736180 Hash: 632AB86D993412B89D452E1535B56E7F Accuracy: -m8
  Conclusion: CDDA 100%
  Signature: 0F90420A181F930BFC85C90E135616A3E39DD21A
FILE: 06 Fear.flac
  Size: 24574152 Hash: B733A14E853DF8E6B6181B32868CB683 Accuracy: -m8
  Conclusion: CDDA 99%
  Signature: 75045387E135EF8C2F9AFDFF0EF1BD3FDCDA44D4
FILE: 07 Note To Self.flac
  Size: 18321029 Hash: 9A1DBDDCCF3FC62BD303EF973618E838 Accuracy: -m8
  Conclusion: CDDA 100%
  Signature: 95902551E942AA0EF2AC2EC97992AECD7FA6007E
FILE: 08 Like The World Is Going To End.flac
  Size: 26705813 Hash: C4AAF2D0111F8B9ACCBEE673AD3997F9 Accuracy: -m8
  Conclusion: CDDA 100%
  Signature: 417092CB992A4BBDAA4852AE3CF4215936C1A582
FILE: 09 Crazy.flac
  Size: 26789507 Hash: DECE33D63AB890CE7B9313529A58FE49 Accuracy: -m8
  Conclusion: CDDA 100%
  Signature: 2B2A980457D82B12AC8CBC591F75A06878BB4CCF
FILE: 10 Almost Home.flac
  Size: 29569077 Hash: 357B49DA196A5778DC0C694085E527F9 Accuracy: -m8
  Conclusion: CDDA 100%
  Signature: 02B880CF4D19ACFC2752866019751FB26AA03D67
FILE: 11 30,000 Feet.flac
  Size: 26194738 Hash: 47B23FD2ABACC338F802FAE77EF3E8BE Accuracy: -m8
  Conclusion: CDDA 100%
  Signature: D8A9BE77AD25F99E4AB88002C53E9FF8C7DBA133
FILE: 12 More Like Love.flac
  Size: 19937886 Hash: EE85D95FE2A23E338010BD90145A0A0B Accuracy: -m8
  Conclusion: CDDA 87%
  Signature: 58D88C9BD691E2039C1E6B27DD270E141D02CF9A
Код:
foobar2000 1.2.8 / Dynamic Range Meter 1.1.1
log date: 2015-09-02 00:34:10
--------------------------------------------------------------------------------
Analyzed: Ben Rector / Brand New
--------------------------------------------------------------------------------
DR         Peak         RMS     Duration Track
--------------------------------------------------------------------------------
DR10      -0.08 dB   -13.26 dB      1:34 01-Make Something Beautiful
DR5       -0.08 dB    -7.20 dB      4:04 02-Brand New
DR7        0.00 dB   -11.00 dB      3:08 03-Paris
DR6        0.00 dB    -8.47 dB      3:40 04-Favorite Song
DR10      -0.07 dB   -14.05 dB      4:18 05-The Men That Drive Me Places
DR6        0.00 dB    -8.83 dB      3:26 06-Fear
DR9       -0.19 dB   -12.02 dB      3:02 07-Note To Self
DR6        0.00 dB    -7.90 dB      3:30 08-Like The World Is Going To End
DR6        0.00 dB    -9.57 dB      4:10 09-Crazy
DR7        0.00 dB    -9.33 dB      4:28 10-Almost Home
DR8        0.00 dB   -10.48 dB      4:17 11-30,000 Feet
DR10      -0.05 dB   -12.97 dB      3:47 12-More Like Love
--------------------------------------------------------------------------------
Number of tracks:  12
Official DR value: DR7
Samplerate:        44100 Hz
Channels:          2
Bits per sample:   16
Bitrate:           700 kbps
Codec:             FLAC
================================================================================

http://www.benrectormusic.com/
https://en.wikipedia.org/wiki/Ben_Rector
https://www.youtube.com/user/benrector
Правила, инструкции, FAQ!!!
Торрент  Добавлен [26 мар 2019, 20:30] Скачать торрент Магнет ссылка
Скачать торрент
[ Размер 6.46 КБ / Просмотров 2 ]

Статус
Проверен 
 
Размер  263.93 МБ
Приватный: Нет (DHT включён)
.torrent скачан  1
 


     Отправить личное сообщение
   
Страница 1 из 1
Показать сообщения за:  Поле сортировки  
Начать новую тему Ответить на тему


Сейчас этот форум просматривают: нет зарегистрированных пользователей и гости: 0


Вы не можете начинать темы
Вы не можете отвечать на сообщения
Вы не можете редактировать свои сообщения
Вы не можете удалять свои сообщения
Вы не можете добавлять вложения

Перейти:  
cron