Начать новую тему Ответить на тему
Статистика раздачи
Размер: 236.22 МБ | Добавлен: 26 мар 2019, 19:36 | Скачали: 0
Сидеров: 0  [0 байт/сек]    Личеров: 0  [0 байт/сек]
Пред. тема | След. тема 

Автор
Сообщение

СообщениеДобавлено: 26 мар 2019, 19:36 

Ответить с цитатой 

Tandyn Almer / Along Comes Tandyn (1966)
Жанр: Pop-Rock/Beat/Psychedelic Pop
Носитель: CD
Страна-производитель диска (релиза): USA
Год издания: 2013
Издатель (лейбл): Sundazed
Номер по каталогу: SC 11222
Страна исполнителя (группы): USA
Аудиокодек: FLAC (*.flac)
Тип рипа: image+.cue
Битрейт аудио: lossless
Продолжительность: 00:47:47
Источник (релизер): рип от Andi_Deris
Наличие сканов в содержимом раздачи: да
Треклист:
01 Find Yourself
02 You Turn Me Around
03 Anything You Want
04 About Where Love Is
05 Everytime I Take You Back To Me
06 There’s Gotta Be A Way
07 Alice Designs
08 Face Down In The Mud
09 Where Will They Go
10 Escape
11 Victims Of Chance
12 Bring Your Own Self Down (The Purple Gang)
13 I Get High
14 Menagerie Of Man
15 Sunset Strip Soliloquy
Код:
Exact Audio Copy V1.0 beta 3 from 29. August 2011
EAC extraction logfile from 1. September 2013, 10:35
Tandyn Almer / Along Comes Tandyn [Sundazed, SC 11222]
Used drive  : PLDS    DVD-RW DH16AESH   Adapter: 0  ID: 0
Read mode               : Secure
Utilize accurate stream : Yes
Defeat audio cache      : Yes
Make use of C2 pointers : No
Read offset correction                      : 6
Overread into Lead-In and Lead-Out          : No
Fill up missing offset samples with silence : Yes
Delete leading and trailing silent blocks   : No
Null samples used in CRC calculations       : Yes
Used interface                              : Native Win32 interface for Win NT & 2000
Used output format              : User Defined Encoder
Selected bitrate                : 768 kBit/s
Quality                         : High
Add ID3 tag                     : Yes
Command line compressor         : C:\Program Files (x86)\Exact Audio Copy\Flac\flac.exe
Additional command line options : -V -8 -T "Date=%year%" -T "Genre=%genre%" %source%
TOC of the extracted CD
     Track |   Start  |  Length  | Start sector | End sector
    ---------------------------------------------------------
        1  |  0:00.00 |  2:44.44 |         0    |    12343
        2  |  2:44.44 |  2:20.46 |     12344    |    22889
        3  |  5:05.15 |  3:45.40 |     22890    |    39804
        4  |  8:50.55 |  2:11.01 |     39805    |    49630
        5  | 11:01.56 |  2:08.55 |     49631    |    59285
        6  | 13:10.36 |  2:43.19 |     59286    |    71529
        7  | 15:53.55 |  3:39.22 |     71530    |    87976
        8  | 19:33.02 |  4:09.47 |     87977    |   106698
        9  | 23:42.49 |  4:34.36 |    106699    |   127284
       10  | 28:17.10 |  3:27.28 |    127285    |   142837
       11  | 31:44.38 |  3:34.16 |    142838    |   158903
       12  | 35:18.54 |  2:46.15 |    158904    |   171368
       13  | 38:04.69 |  3:21.33 |    171369    |   186476
       14  | 41:26.27 |  2:15.12 |    186477    |   196613
       15  | 43:41.39 |  4:05.19 |    196614    |   215007
Range status and errors
Selected range
     Filename E:\Tandyn Almer - Along Comes Tandyn.wav
     Peak level 100.0 %
     Extraction speed 6.1 X
     Range quality 100.0 %
     Test CRC 043C4741
     Copy CRC 043C4741
     Copy OK
No errors occurred
AccurateRip summary
Track  1  cannot be verified as accurate (confidence 3)  [4DC31059], AccurateRip returned [1E69D5E8]  (AR v2)
Track  2  cannot be verified as accurate (confidence 3)  [DE957D51], AccurateRip returned [5207F4FE]  (AR v2)
Track  3  cannot be verified as accurate (confidence 3)  [B0AA8C93], AccurateRip returned [910263C4]  (AR v2)
Track  4  cannot be verified as accurate (confidence 3)  [32C4258A], AccurateRip returned [84770BED]  (AR v2)
Track  5  cannot be verified as accurate (confidence 3)  [D50B3CEB], AccurateRip returned [D13C45E1]  (AR v2)
Track  6  cannot be verified as accurate (confidence 3)  [1595EE73], AccurateRip returned [7ACF00A6]  (AR v2)
Track  7  cannot be verified as accurate (confidence 3)  [63BEAAF1], AccurateRip returned [675EEE96]  (AR v2)
Track  8  cannot be verified as accurate (confidence 3)  [510B86DF], AccurateRip returned [4C483E41]  (AR v2)
Track  9  cannot be verified as accurate (confidence 3)  [8F0CCFC1], AccurateRip returned [5D8E1616]  (AR v2)
Track 10  cannot be verified as accurate (confidence 3)  [0AC19CD4], AccurateRip returned [D27DEBF3]  (AR v2)
Track 11  cannot be verified as accurate (confidence 3)  [B490BD95], AccurateRip returned [C047CF6B]  (AR v2)
Track 12  cannot be verified as accurate (confidence 3)  [7D479A39], AccurateRip returned [531D5D7A]  (AR v2)
Track 13  cannot be verified as accurate (confidence 3)  [5E2EAFFD], AccurateRip returned [E6F21221]  (AR v2)
Track 14  cannot be verified as accurate (confidence 3)  [DEA64B2C], AccurateRip returned [54F846A2]  (AR v2)
Track 15  cannot be verified as accurate (confidence 3)  [E260DF08], AccurateRip returned [A388B405]  (AR v2)
No tracks could be verified as accurate
You may have a different pressing from the one(s) in the database
End of status report
==== Log checksum 0E3FA075133E5A7CD6A1A63F83493CF1DCD74AE7892551AADFFFDAB4629BA7B7 ====
Код:
REM GENRE "Folk Rock"
REM DATE 2013
REM DISCID D30B320F
REM COMMENT "ExactAudioCopy v1.0b3"
PERFORMER "Tandyn Almer"
TITLE "Along Comes Tandyn [Sundazed, SC 11222]"
FILE "Tandyn Almer - Along Comes Tandyn.flac" WAVE
  TRACK 01 AUDIO
    TITLE "Find Yourself"
    PERFORMER "Tandyn Almer"
    ISRC 000000000000
    INDEX 01 00:00:00
  TRACK 02 AUDIO
    TITLE "You Turn Me Around"
    PERFORMER "Tandyn Almer"
    ISRC 000000000000
    INDEX 01 02:44:44
  TRACK 03 AUDIO
    TITLE "Anything You Want"
    PERFORMER "Tandyn Almer"
    ISRC 000000000000
    INDEX 01 05:05:15
  TRACK 04 AUDIO
    TITLE "About Where Love Is"
    PERFORMER "Tandyn Almer"
    ISRC 000000000000
    INDEX 01 08:50:55
  TRACK 05 AUDIO
    TITLE "Everytime I Take You Back To Me"
    PERFORMER "Tandyn Almer"
    ISRC 000000000000
    INDEX 01 11:01:56
  TRACK 06 AUDIO
    TITLE "There’s Gotta Be A Way"
    PERFORMER "Tandyn Almer"
    ISRC 000000000000
    INDEX 01 13:10:36
  TRACK 07 AUDIO
    TITLE "Alice Designs"
    PERFORMER "Tandyn Almer"
    ISRC 000000000000
    INDEX 01 15:53:55
  TRACK 08 AUDIO
    TITLE "Face Down In The Mud"
    PERFORMER "Tandyn Almer"
    ISRC 000000000000
    INDEX 01 19:33:02
  TRACK 09 AUDIO
    TITLE "Where Will They Go"
    PERFORMER "Tandyn Almer"
    ISRC 000000000000
    INDEX 01 23:42:49
  TRACK 10 AUDIO
    TITLE "Escape"
    PERFORMER "Tandyn Almer"
    ISRC 000000000000
    INDEX 01 28:17:10
  TRACK 11 AUDIO
    TITLE "Victims Of Chance"
    PERFORMER "Tandyn Almer"
    ISRC 000000000000
    INDEX 01 31:44:38
  TRACK 12 AUDIO
    TITLE "Bring Your Own Self Down (The Purple Gang)"
    PERFORMER "Tandyn Almer"
    ISRC 000000000000
    INDEX 01 35:18:54
  TRACK 13 AUDIO
    TITLE "I Get High"
    PERFORMER "Tandyn Almer"
    ISRC 000000000000
    INDEX 01 38:04:69
  TRACK 14 AUDIO
    TITLE "Menagerie Of Man"
    PERFORMER "Tandyn Almer"
    ISRC 000000000000
    INDEX 01 41:26:27
  TRACK 15 AUDIO
    TITLE "Sunset Strip Soliloquy"
    PERFORMER "Tandyn Almer"
    ISRC 000000000000
    INDEX 01 43:41:39
Tandyn Douglas Almer (30 июля 1942 г. - 8 января 2013 г.) - американский музыкант, композитор, поэт-песенник и продюсер. Элмер написал и продюсировал многочисленные песни, которые были известны в исполнении других артистов в 1960-х и 1970-х годов, включая такие как The Association, Тhe Garden Club, Sagittarius, The Purple Gang и The Beach Boys.
На данном альбоме, выпущенной фирмой Sundazed, представлены пятнадцать песен, которые он записал в качестве демо для лейбла Davon Music на протяжении 1965-66 годов. Элмер является очень недооцененным музыкантом, который был почти столь же одарён, как Брайан Уилсон из Beach Boys.
Правила, инструкции, FAQ!!!
Торрент  Добавлен [26 мар 2019, 19:36] Скачать торрент Магнет ссылка
Скачать торрент
[ Размер 20.4 КБ / Просмотров 0 ]

Статус
Проверен 
 
Размер  236.22 МБ
Приватный: Нет (DHT включён)
.torrent скачан  0
 


     Отправить личное сообщение
   
Страница 1 из 1
Показать сообщения за:  Поле сортировки  
Начать новую тему Ответить на тему


Сейчас этот форум просматривают: нет зарегистрированных пользователей и гости: 0


Вы не можете начинать темы
Вы не можете отвечать на сообщения
Вы не можете редактировать свои сообщения
Вы не можете удалять свои сообщения
Вы не можете добавлять вложения

Перейти:  
cron