Начать новую тему Ответить на тему
Статистика раздачи
Размер: 286.33 МБ | Добавлен: 26 мар 2019, 18:37 | Скачали: 1
Сидеров: 2  [0 байт/сек]    Личеров: 0  [0 байт/сек]
Пред. тема | След. тема 

Автор
Сообщение

СообщениеДобавлено: 26 мар 2019, 18:37 

Ответить с цитатой 

Bay City Rollers - Strangers In The Wind
Жанр: Pop Rock
Год выпуска диска: 2007
Производитель диска: UK
Аудио кодек: APE
Тип рипа: image+.cue
Битрейт аудио: lossless
Продолжительность: 41м 47 с
Трэклист:
01. Another Rainy Day In New York City [0:04:20.74]
02. All Of The World Is Falling In Love [0:04:51.39]
03. Where Will I Be Now ? [0:03:29.21]
04. Back On The Street [0:02:58.29]
05. Strangers In The Wind [0:03:43.21]
06. Love Bought Me Such A Magical Feeling [0:04:04.02]
07. If You Were My Woman [0:03:12.49]
08. Every Tear I Cry [0:03:50.01]
09. Shoorah Shoorah For Hollywood [0:03:25.19]
10. When I Say I Love You (The Pie) [0:03:49.00]
11. All Of The World Is Falling In Love (Single) [0:04:02.59]
Доп. информация:
2007 GLAM CD 45 7T's Records, a div. Cherry Red Rec.
6 номерной альбом 1978 г.
Отчёт EAC:
Exact Audio Copy V0.99 prebeta 4 from 23. January 2008
Отчёт EAC об извлечении, выполненном 17. ноября 2008, 23:28
Bay City Rollers / Strangers In The Wind
Дисковод: PLEXTOR DVDR PX-810SA Adapter: 3 ID: 0
Режим чтения : Достоверность
Использование точного потока : Да
Отключение кэша аудио : Да
Использование указателей C2 : Нет
Коррекция смещения при чтении : 48
Способность читать области Lead-in и Lead-out : Нет
Заполнение пропущенных сэмплов тишиной : Да
Удаление блоков с тишиной в начале и конце : Нет
При вычислениях CRC использовались нулевые сэмплы : Нет
Интерфейс : Встроенный Win32-интерфейс для Win NT/2000
Выходной формат : Monkey's Audio (без потерь)
Выбранный битрейт : Normal Lossless Compression
Качество : Высокий
Добавление ID3-тэга : Да
Утилита сжатия : J:\Program Files\Exact Audio Copy\MAC.exe
TOC извлечённого CD
Трек | Старт | Длительность | Начальный сектор | Конечный сектор
---------------------------------------------------------------------
1 | 0:00.00 | 4:20.74 | 0 | 19573
2 | 4:20.74 | 4:51.39 | 19574 | 41437
3 | 9:12.38 | 3:29.21 | 41438 | 57133
4 | 12:41.59 | 2:58.29 | 57134 | 70512
5 | 15:40.13 | 3:43.21 | 70513 | 87258
6 | 19:23.34 | 4:04.02 | 87259 | 105560
7 | 23:27.36 | 3:12.49 | 105561 | 120009
8 | 26:40.10 | 3:50.01 | 120010 | 137260
9 | 30:30.11 | 3:25.19 | 137261 | 152654
10 | 33:55.30 | 3:49.00 | 152655 | 169829
11 | 37:44.30 | 4:02.59 | 169830 | 188038
Характеристики диапазона извлечения и сообщения об ошибках
Выбранный диапазон
Имя файла D:\Bay City Rollers - Strangers In The Wind\Bay City Rollers - Strangers In The Wind.wav
Пиковый уровень 97.7 %
Качество диапазона 100.0 %
CRC копии 1F1EA8D6
Копирование... OK
Ошибок не произошло
AccurateRip: сводка
Трек 1 нет в базе данных
Трек 2 нет в базе данных
Трек 3 нет в базе данных
Трек 4 нет в базе данных
Трек 5 нет в базе данных
Трек 6 нет в базе данных
Трек 7 нет в базе данных
Трек 8 нет в базе данных
Трек 9 нет в базе данных
Трек 10 нет в базе данных
Трек 11 нет в базе данных
Ни одного трека нет в базе AccurateRip
Конец отчёта
Правила, инструкции, FAQ!!!
Торрент  Добавлен [26 мар 2019, 18:37] Скачать торрент Магнет ссылка
Скачать торрент
[ Размер 12.38 КБ / Просмотров 43 ]

Статус
Проверен 
 
Размер  286.33 МБ
Приватный: Нет (DHT включён)
.torrent скачан  1
 


     Отправить личное сообщение
   
Страница 1 из 1
Показать сообщения за:  Поле сортировки  
Начать новую тему Ответить на тему


Сейчас этот форум просматривают: нет зарегистрированных пользователей и гости: 0


Вы не можете начинать темы
Вы не можете отвечать на сообщения
Вы не можете редактировать свои сообщения
Вы не можете удалять свои сообщения
Вы не можете добавлять вложения

Перейти:  
cron