Начать новую тему Ответить на тему
Статистика раздачи
Размер: 1.77 ГБ | Добавлен: 26 мар 2019, 20:09 | Скачали: 0
Сидеров: 0  [0 байт/сек]    Личеров: 0  [0 байт/сек]
Пред. тема | След. тема 

Автор
Сообщение

СообщениеДобавлено: 26 мар 2019, 20:09 

Ответить с цитатой 

Bay City Rollers / Rollermania (The Anthology 4CD Box Set)
Жанр: Pop Rock
Страна-производитель диска: UK
Год издания диска: 2010
Издатель (лейбл): SALVO
Номер по каталогу: SALVOSBX451
Страна: UK
Аудио кодек: APE (*.ape)
Тип рипа: image+.cue
Битрейт аудио: lossless
Продолжительность: Over 4 hours
Источник (релизер): Рип собственного оригинального издания
Наличие сканов в содержимом раздачи: да
(Буклет попался с кривой типографской обрезкой края, немного подкорректировал сканы)
"Об альбоме (сборнике)"
Here for the first time across four joyous CDs are all the bahd's singles plus B'sides, album tracks, oddities and a full color 36 page booklet.
Данные по трэкам в буклете, правда информации по номерам изданий нет.
Издание выполнено в виде 5-листового диджипака, складывающегося с одной стороны как ролл.
Фон рисунка под держателями дисков у всех одинаков, см. скан digiIn.
Release info
Треклист:
CD1
01. Keep On Dancing (Original Single Version) [0:02:07.18]
02. Alright [0:02:04.50]
03. We Can Make Music [0:02:32.35]
04. Jenny [0:02:12.04]
05. Wouldn't You Like It (1972) [0:02:57.55]
06. I'd Do It Again [0:02:56.66]
07. Manana [0:03:19.32]
08. Because I Love You [0:02:55.03]
09. Saturday Night (Original Uk Single Version) [0:02:51.73]
10. Hey C. B. [0:03:04.71]
11. Remember (Original Uk Single Version) [0:02:33.31]
12. Bye Bye Barbara [0:02:35.61]
13. Shang A Lang [0:03:05.62]
14. Are You Ready For That Rock 'N' Roll [0:03:28.00]
15. Angel Angel [0:02:26.58]
16. Just A Little Love [0:02:56.03]
17. Ain't It Strange [0:02:10.25]
18. Jenny Gotta Dance [0:03:06.13]
19. Summerlove Sensation (Single Version) [0:03:12.29]
20. Bringing Back The Good Times [0:03:41.22]
21. Saturday Night (Les McKEOWN version) [0:02:56.11]
CD2:
01. All Of Me Loves All Of You [0:03:05.02]
02. The Bump [0:02:31.62]
03. Bye Bye Baby [0:02:48.32]
04. It's For You [0:03:27.22]
05. La Belle Jeane (Uk Version) [0:03:59.48]
06. Keep On Dancing (Les McKEOWN version) [0:02:40.07]
07. Once Upon A Star [0:02:58.55]
08. Let's Go [0:03:27.21]
09. My Teenage Heart [0:02:30.13]
10. Rock 'N' Roll Honeymoon [0:02:43.33]
11. Give A Little Love (Uk Single Version) [0:03:29.23]
12. She'll Be Crying Over You [0:03:10.51]
13. Money Honey [0:03:17.05]
14. Mary Anne [0:02:47.61]
15. I Only Wanna Dance With You [0:02:58.20]
16. Don't Stop The Music [0:02:48.24]
17. Love Is [0:02:36.53]
18. Too Young To Rock 'N' Roll [0:02:15.58]
19. Wouldn't You Like It (1975) [0:03:12.72]
20. Eagles Fly [0:03:03.07]
21. Lovely To See You [0:03:56.05]
CD3:
01. Love Me Like I Love You [0:03:18.45]
02. Mama Li [0:03:15.37]
03. I Only Wanna Be With You [0:03:38.05]
04. Rock 'N' Roller [0:03:33.65]
05. Let's Pretend [0:03:29.72]
06. You're A Woman [0:04:15.34]
07. Yesterdays Hero [0:04:31.74]
08. Rock 'N' Roll Love Letter [0:02:56.25]
09. It's A Game [0:03:00.03]
10. Dance Dance Dance [0:03:36.15]
11. You Made Me Believe In Magic [0:02:45.08]
12. Are You Cuckoo [0:04:05.69]
13. Dedication (Les McKEOWN version [0:03:57.70]
14. The Way I Feel Tonight (Single Version) [0:03:58.06]
15. Love Power [0:03:33.05]
16. Another Rainy Day In New York City [0:04:23.21]
17. All Of The World Is Falling In Love (Single Version) [0:04:04.73]
18. If You Were My Woman [0:03:15.26]
19. Where Will I Be Now [0:03:31.55]
20. Strangers In The Wind [0:03:45.59]
21. When I Say I Love You (The Pie) [0:03:48.74]
CD4:
01. Turn On The Radio [0:03:43.09]
02. Washington's Birthday [0:03:46.33]
03. Elevator [0:03:13.68]
04. Hello & Welcome Home [0:04:29.33]
05. Stoned Houses #2 [0:03:54.23]
06. Playing In A Rock 'N' Roll Band [0:03:46.07]
07. Life On The Radio [0:04:07.54]
08. Ricochet [0:02:27.44]
09. Doors, Bars & Metal [0:03:44.44]
10. Ride [0:04:11.22]
11. No Doubt About It [0:03:58.35]
12. Set The Fashion [0:03:30.61]
13. Yesterday's Hero (U.S. Version) [0:03:44.61]
14. Summerlove Sensation (U.S. Version) [0:03:16.08]
15. Give A Little Love (U.S. Version) [0:03:24.00]
16. Where Will I Be Now (Alternative Vocal) [0:03:33.72]
17. Kings Road Chelsea (Les McKEOWN) [0:03:17.59]
18. All Washed Up (Les McKEOWN) [0:03:51.31]
Код:
Exact Audio Copy V1.0 beta 1 from 15. November 2010
Отчёт EAC об извлечении, выполненном 19. марта 2011, 13:15
Bay City Rollers / Rollermania ( CD1 )
Дисковод: PLEXTOR DVDR   PX-716A   Adapter: 2  ID: 0
Режим чтения                 : Достоверность
Использование точного потока : Да
Отключение кэша аудио        : Да
Использование указателей C2  : Нет
Коррекция смещения при чтении                     : 30
Способность читать области Lead-in и Lead-out     : Нет
Заполнение пропущенных сэмплов тишиной            : Да
Удаление блоков с тишиной в начале и конце        : Нет
При вычислениях CRC использовались нулевые сэмплы : Да
Интерфейс                                         : Встроенный Win32-интерфейс для Win NT/2000
Выходной формат          : Пользовательский кодировщик
Выбранный битрейт        : 1024 kBit/s
Качество                 : Высокий
Добавление ID3-тега      : Да
Утилита сжатия           : C:\Program Files\Exact Audio Copy\wapet.exe
Дополнительные параметры : %d -t "Artist=%a" -t "Releaser=% wwphil" -t "Album=%g" -t "Year=%y" -t "Track=%n" -t "Genre=%m" mac.exe %s %d -c2000
TOC извлечённого CD
     Трек |   Старт  | Длительность | Начальный сектор | Конечный сектор
    ---------------------------------------------------------------------
       1  |  0:00.00 |    2:07.18   |           0      |       9542
       2  |  2:07.18 |    2:04.50   |        9543      |      18892
       3  |  4:11.68 |    2:32.35   |       18893      |      30327
       4  |  6:44.28 |    2:12.04   |       30328      |      40231
       5  |  8:56.32 |    2:57.55   |       40232      |      53561
       6  | 11:54.12 |    2:56.66   |       53562      |      66827
       7  | 14:51.03 |    3:19.32   |       66828      |      81784
       8  | 18:10.35 |    2:55.03   |       81785      |      94912
       9  | 21:05.38 |    2:51.73   |       94913      |     107810
      10  | 23:57.36 |    3:04.71   |      107811      |     121681
      11  | 27:02.32 |    2:33.31   |      121682      |     133187
      12  | 29:35.63 |    2:35.61   |      133188      |     144873
      13  | 32:11.49 |    3:05.62   |      144874      |     158810
      14  | 35:17.36 |    3:28.00   |      158811      |     174410
      15  | 38:45.36 |    2:26.58   |      174411      |     185418
      16  | 41:12.19 |    2:56.03   |      185419      |     198621
      17  | 44:08.22 |    2:10.25   |      198622      |     208396
      18  | 46:18.47 |    3:06.13   |      208397      |     222359
      19  | 49:24.60 |    3:12.29   |      222360      |     236788
      20  | 52:37.14 |    3:41.22   |      236789      |     253385
      21  | 56:18.36 |    2:56.11   |      253386      |     266596
Характеристики диапазона извлечения и сообщения об ошибках
Выбранный диапазон
     Имя файла D:\Bay City Rollers - Rollermania (The Antology 4CD Box Set)\Rollermania ( CD1 )\Bay City Rollers - Rollermania ( CD1 ).wav
     Пиковый уровень 97.7 %
     Скорость извлечения 0.1 X
     Качество диапазона 100.0 %
     CRC теста 7A7DA1D4
     CRC копии 7A7DA1D4
     Копирование... OK
Ошибок не произошло
AccurateRip: сводка
Трек  1  отсутствует в базе данных
Трек  2  отсутствует в базе данных
Трек  3  отсутствует в базе данных
Трек  4  отсутствует в базе данных
Трек  5  отсутствует в базе данных
Трек  6  отсутствует в базе данных
Трек  7  отсутствует в базе данных
Трек  8  отсутствует в базе данных
Трек  9  отсутствует в базе данных
Трек 10  отсутствует в базе данных
Трек 11  отсутствует в базе данных
Трек 12  отсутствует в базе данных
Трек 13  отсутствует в базе данных
Трек 14  отсутствует в базе данных
Трек 15  отсутствует в базе данных
Трек 16  отсутствует в базе данных
Трек 17  отсутствует в базе данных
Трек 18  отсутствует в базе данных
Трек 19  отсутствует в базе данных
Трек 20  отсутствует в базе данных
Трек 21  отсутствует в базе данных
Ни одного трека нет в базе AccurateRip
Конец отчёта
==== Контрольная сумма отчёта 7394F0D298B4B7E5E994C8340F0A6C455293914C8BE417C42B2E628669560F56 ====
Код:
Exact Audio Copy V1.0 beta 1 from 15. November 2010
Отчёт EAC об извлечении, выполненном 19. марта 2011, 14:15
Bay City Rollers / Rollermania ( CD2 )
Дисковод: PLEXTOR DVDR   PX-716A   Adapter: 2  ID: 0
Режим чтения                 : Достоверность
Использование точного потока : Да
Отключение кэша аудио        : Да
Использование указателей C2  : Нет
Коррекция смещения при чтении                     : 30
Способность читать области Lead-in и Lead-out     : Нет
Заполнение пропущенных сэмплов тишиной            : Да
Удаление блоков с тишиной в начале и конце        : Нет
При вычислениях CRC использовались нулевые сэмплы : Да
Интерфейс                                         : Встроенный Win32-интерфейс для Win NT/2000
Выходной формат          : Пользовательский кодировщик
Выбранный битрейт        : 1024 kBit/s
Качество                 : Высокий
Добавление ID3-тега      : Да
Утилита сжатия           : C:\Program Files\Exact Audio Copy\wapet.exe
Дополнительные параметры : %d -t "Artist=%a" -t "Releaser=% wwphil" -t "Album=%g" -t "Year=%y" -t "Track=%n" -t "Genre=%m" mac.exe %s %d -c2000
TOC извлечённого CD
     Трек |   Старт  | Длительность | Начальный сектор | Конечный сектор
    ---------------------------------------------------------------------
       1  |  0:00.00 |    3:05.02   |           0      |      13876
       2  |  3:05.02 |    2:31.62   |       13877      |      25263
       3  |  5:36.64 |    2:48.32   |       25264      |      37895
       4  |  8:25.21 |    3:27.22   |       37896      |      53442
       5  | 11:52.43 |    3:59.48   |       53443      |      71415
       6  | 15:52.16 |    2:40.07   |       71416      |      83422
       7  | 18:32.23 |    2:58.55   |       83423      |      96827
       8  | 21:31.03 |    3:27.21   |       96828      |     112373
       9  | 24:58.24 |    2:30.13   |      112374      |     123636
      10  | 27:28.37 |    2:43.33   |      123637      |     135894
      11  | 30:11.70 |    3:29.23   |      135895      |     151592
      12  | 33:41.18 |    3:10.51   |      151593      |     165893
      13  | 36:51.69 |    3:17.05   |      165894      |     180673
      14  | 40:08.74 |    2:47.61   |      180674      |     193259
      15  | 42:56.60 |    2:58.20   |      193260      |     206629
      16  | 45:55.05 |    2:48.24   |      206630      |     219253
      17  | 48:43.29 |    2:36.53   |      219254      |     231006
      18  | 51:20.07 |    2:15.58   |      231007      |     241189
      19  | 53:35.65 |    3:12.72   |      241190      |     255661
      20  | 56:48.62 |    3:03.07   |      255662      |     269393
      21  | 59:51.69 |    3:56.05   |      269394      |     287098
Характеристики диапазона извлечения и сообщения об ошибках
Выбранный диапазон
     Имя файла D:\Bay City Rollers - Rollermania (The Antology 4CD Box Set)\Rollermania ( CD2 )\Bay City Rollers - Rollermania ( CD2 ).wav
     Пиковый уровень 97.7 %
     Скорость извлечения 0.1 X
     Качество диапазона 100.0 %
     CRC теста 81826B5A
     CRC копии 81826B5A
     Копирование... OK
Ошибок не произошло
AccurateRip: сводка
Трек  1  отсутствует в базе данных
Трек  2  отсутствует в базе данных
Трек  3  отсутствует в базе данных
Трек  4  отсутствует в базе данных
Трек  5  отсутствует в базе данных
Трек  6  отсутствует в базе данных
Трек  7  отсутствует в базе данных
Трек  8  отсутствует в базе данных
Трек  9  отсутствует в базе данных
Трек 10  отсутствует в базе данных
Трек 11  отсутствует в базе данных
Трек 12  отсутствует в базе данных
Трек 13  отсутствует в базе данных
Трек 14  отсутствует в базе данных
Трек 15  отсутствует в базе данных
Трек 16  отсутствует в базе данных
Трек 17  отсутствует в базе данных
Трек 18  отсутствует в базе данных
Трек 19  отсутствует в базе данных
Трек 20  отсутствует в базе данных
Трек 21  отсутствует в базе данных
Ни одного трека нет в базе AccurateRip
Конец отчёта
==== Контрольная сумма отчёта A4233D9F62DA5F022BFF9EF58AD44BA31177580B81CC23286E208655AC55370A ====
Код:
Exact Audio Copy V1.0 beta 1 from 15. November 2010
Отчёт EAC об извлечении, выполненном 19. марта 2011, 15:27
Bay City Rollers / Rollermania ( CD3 )
Дисковод: PLEXTOR DVDR   PX-716A   Adapter: 2  ID: 0
Режим чтения                 : Достоверность
Использование точного потока : Да
Отключение кэша аудио        : Да
Использование указателей C2  : Нет
Коррекция смещения при чтении                     : 30
Способность читать области Lead-in и Lead-out     : Нет
Заполнение пропущенных сэмплов тишиной            : Да
Удаление блоков с тишиной в начале и конце        : Нет
При вычислениях CRC использовались нулевые сэмплы : Да
Интерфейс                                         : Встроенный Win32-интерфейс для Win NT/2000
Выходной формат          : Пользовательский кодировщик
Выбранный битрейт        : 1024 kBit/s
Качество                 : Высокий
Добавление ID3-тега      : Да
Утилита сжатия           : C:\Program Files\Exact Audio Copy\wapet.exe
Дополнительные параметры : %d -t "Artist=%a" -t "Releaser=% wwphil" -t "Album=%g" -t "Year=%y" -t "Track=%n" -t "Genre=%m" mac.exe %s %d -c2000
TOC извлечённого CD
     Трек |   Старт  | Длительность | Начальный сектор | Конечный сектор
    ---------------------------------------------------------------------
       1  |  0:00.00 |    3:18.45   |           0      |      14894
       2  |  3:18.45 |    3:15.37   |       14895      |      29556
       3  |  6:34.07 |    3:38.05   |       29557      |      45911
       4  | 10:12.12 |    3:33.65   |       45912      |      61951
       5  | 13:46.02 |    3:29.72   |       61952      |      77698
       6  | 17:15.74 |    4:15.34   |       77699      |      96857
       7  | 21:31.33 |    4:31.74   |       96858      |     117256
       8  | 26:03.32 |    2:56.25   |      117257      |     130481
       9  | 28:59.57 |    3:00.03   |      130482      |     143984
      10  | 31:59.60 |    3:36.15   |      143985      |     160199
      11  | 35:36.00 |    2:45.08   |      160200      |     172582
      12  | 38:21.08 |    4:05.69   |      172583      |     191026
      13  | 42:27.02 |    3:57.70   |      191027      |     208871
      14  | 46:24.72 |    3:58.06   |      208872      |     226727
      15  | 50:23.03 |    3:33.05   |      226728      |     242707
      16  | 53:56.08 |    4:23.21   |      242708      |     262453
      17  | 58:19.29 |    4:04.73   |      262454      |     280826
      18  | 62:24.27 |    3:15.26   |      280827      |     295477
      19  | 65:39.53 |    3:31.55   |      295478      |     311357
      20  | 69:11.33 |    3:45.59   |      311358      |     328291
      21  | 72:57.17 |    3:48.74   |      328292      |     345465
Характеристики диапазона извлечения и сообщения об ошибках
Выбранный диапазон
     Имя файла D:\Bay City Rollers - Rollermania (The Antology 4CD Box Set)\Rollermania ( CD3 )\Bay City Rollers - Rollermania ( CD3 ).wav
     Пиковый уровень 97.7 %
     Скорость извлечения 0.1 X
     Качество диапазона 100.0 %
     CRC теста 834608C5
     CRC копии 834608C5
     Копирование... OK
Ошибок не произошло
AccurateRip: сводка
Трек  1  отсутствует в базе данных
Трек  2  отсутствует в базе данных
Трек  3  отсутствует в базе данных
Трек  4  отсутствует в базе данных
Трек  5  отсутствует в базе данных
Трек  6  отсутствует в базе данных
Трек  7  отсутствует в базе данных
Трек  8  отсутствует в базе данных
Трек  9  отсутствует в базе данных
Трек 10  отсутствует в базе данных
Трек 11  отсутствует в базе данных
Трек 12  отсутствует в базе данных
Трек 13  отсутствует в базе данных
Трек 14  отсутствует в базе данных
Трек 15  отсутствует в базе данных
Трек 16  отсутствует в базе данных
Трек 17  отсутствует в базе данных
Трек 18  отсутствует в базе данных
Трек 19  отсутствует в базе данных
Трек 20  отсутствует в базе данных
Трек 21  отсутствует в базе данных
Ни одного трека нет в базе AccurateRip
Конец отчёта
==== Контрольная сумма отчёта 7568FCE560C7BAA5BBCDEFDAF7261135774A2F2A7E28D008EDDCD4F2E610CA4D ====
Код:
Exact Audio Copy V1.0 beta 1 from 15. November 2010
Отчёт EAC об извлечении, выполненном 19. марта 2011, 16:32
Bay City Rollers / Rollermania ( CD4 )
Дисковод: PLEXTOR DVDR   PX-716A   Adapter: 2  ID: 0
Режим чтения                 : Достоверность
Использование точного потока : Да
Отключение кэша аудио        : Да
Использование указателей C2  : Нет
Коррекция смещения при чтении                     : 30
Способность читать области Lead-in и Lead-out     : Нет
Заполнение пропущенных сэмплов тишиной            : Да
Удаление блоков с тишиной в начале и конце        : Нет
При вычислениях CRC использовались нулевые сэмплы : Да
Интерфейс                                         : Встроенный Win32-интерфейс для Win NT/2000
Выходной формат          : Пользовательский кодировщик
Выбранный битрейт        : 1024 kBit/s
Качество                 : Высокий
Добавление ID3-тега      : Да
Утилита сжатия           : C:\Program Files\Exact Audio Copy\wapet.exe
Дополнительные параметры : %d -t "Artist=%a" -t "Releaser=% wwphil" -t "Album=%g" -t "Year=%y" -t "Track=%n" -t "Genre=%m" mac.exe %s %d -c2000
TOC извлечённого CD
     Трек |   Старт  | Длительность | Начальный сектор | Конечный сектор
    ---------------------------------------------------------------------
       1  |  0:00.00 |    3:43.09   |           0      |      16733
       2  |  3:43.09 |    3:46.33   |       16734      |      33716
       3  |  7:29.42 |    3:13.68   |       33717      |      48259
       4  | 10:43.35 |    4:29.33   |       48260      |      68467
       5  | 15:12.68 |    3:54.23   |       68468      |      86040
       6  | 19:07.16 |    3:46.07   |       86041      |     102997
       7  | 22:53.23 |    4:07.54   |      102998      |     121576
       8  | 27:01.02 |    2:27.44   |      121577      |     132645
       9  | 29:28.46 |    3:44.44   |      132646      |     149489
      10  | 33:13.15 |    4:11.22   |      149490      |     168336
      11  | 37:24.37 |    3:58.35   |      168337      |     186221
      12  | 41:22.72 |    3:30.61   |      186222      |     202032
      13  | 44:53.58 |    3:44.61   |      202033      |     218893
      14  | 48:38.44 |    3:16.08   |      218894      |     233601
      15  | 51:54.52 |    3:24.00   |      233602      |     248901
      16  | 55:18.52 |    3:33.72   |      248902      |     264948
      17  | 58:52.49 |    3:17.59   |      264949      |     279782
      18  | 62:10.33 |    3:51.31   |      279783      |     297138
Характеристики диапазона извлечения и сообщения об ошибках
Выбранный диапазон
     Имя файла D:\Bay City Rollers - Rollermania (The Antology 4CD Box Set)\Rollermania ( CD4 )\Bay City Rollers - Rollermania ( CD4 ).wav
     Пиковый уровень 97.7 %
     Скорость извлечения 0.1 X
     Качество диапазона 99.9 %
     CRC теста 1FC37103
     CRC копии 1FC37103
     Копирование... OK
Ошибок не произошло
AccurateRip: сводка
Трек  1  отсутствует в базе данных
Трек  2  отсутствует в базе данных
Трек  3  отсутствует в базе данных
Трек  4  отсутствует в базе данных
Трек  5  отсутствует в базе данных
Трек  6  отсутствует в базе данных
Трек  7  отсутствует в базе данных
Трек  8  отсутствует в базе данных
Трек  9  отсутствует в базе данных
Трек 10  отсутствует в базе данных
Трек 11  отсутствует в базе данных
Трек 12  отсутствует в базе данных
Трек 13  отсутствует в базе данных
Трек 14  отсутствует в базе данных
Трек 15  отсутствует в базе данных
Трек 16  отсутствует в базе данных
Трек 17  отсутствует в базе данных
Трек 18  отсутствует в базе данных
Ни одного трека нет в базе AccurateRip
Конец отчёта
==== Контрольная сумма отчёта 4EC93EFAC157C17CC70A79E022DD85E534CB9B31879C204CD1082251CF198E8E ====
Правила, инструкции, FAQ!!!
Торрент  Добавлен [26 мар 2019, 20:09] Скачать торрент Магнет ссылка
Скачать торрент
[ Размер 20.56 КБ / Просмотров 3 ]

Статус
Проверен 
 
Размер  1.77 ГБ
Приватный: Нет (DHT включён)
.torrent скачан  0
 


     Отправить личное сообщение
   
Страница 1 из 1
Показать сообщения за:  Поле сортировки  
Начать новую тему Ответить на тему


Сейчас этот форум просматривают: нет зарегистрированных пользователей и гости: 0


Вы не можете начинать темы
Вы не можете отвечать на сообщения
Вы не можете редактировать свои сообщения
Вы не можете удалять свои сообщения
Вы не можете добавлять вложения

Перейти:  
cron