Начать новую тему Ответить на тему
Статистика раздачи
Размер: 742.85 МБ | Добавлен: 26 мар 2019, 19:52 | Скачали: 0
Сидеров: 5  [0 байт/сек]    Личеров: 3  [0 байт/сек]
Пред. тема | След. тема 

Автор
Сообщение

СообщениеДобавлено: 26 мар 2019, 19:52 

Ответить с цитатой 

Seweryn Krajewski (ex-Czerwone Gitary) / Nagrania radiowe z lat 1977 - 1987
Жанр: Pop-Rock, Ballads
Страна-производитель диска: Poland
Год издания: 2008
Издатель (лейбл): Polskie Radio
Страна: Poland
Аудиокодек: FLAC (*.flac)
Тип рипа: tracks+.cue
Битрейт аудио: lossless
Продолжительность: 00:59:48 + 1:06:40
Источник (релизер): Польский треккер - спасибо rjk
Наличие сканов в содержимом раздачи: да
Треклист:
1 - Kochałem panią
2 - Kwiat
3 - Śpiewka o kamykach
4 - Śpiewka o pękniętym sercu
5 - Śpiewka o śmierci szeregowca gwardii
6 - Pogoda na szczęście
7 - Co każdy chłopiec wiedzieć powinien
8 - Daruj nam, Wisło
9 - Dwie sowy
10 - Siądziemy
11 - Długie te nasze jesienie
12 - A jeśli ja szewcem jestem
13 - Pod niebami
14 - Sama chciała
15 - Jakżes niestała
16 - Kiedy mnie już nie będzie
17 - Papier ścierny
18 - Stan podgorączkowy
19 - Ziemio błękitno szara
01 - Gdzie kochają nas
02 - Ach skąd
03 - Byłem stary
04 - Pijmy wino za kolegów
05 - Serce wróć
06 - Najpiękniejsza
07 - Przemija uroda w nas
08 - Kolęda rozsianych po świecie
09 - O gwiazdeczko coś błyszczała
10 - Chory na smutek
11 - Nie tylko ja
12 - Wakacje w Amsterdamie
13 - Wszyscy do szalup
14 - Lekki zawrót głowy
15 - Proste wzruszenie
16 - Broadway
17 - Mija już wiek
18 - Co każdy chłopiec wiedzieć powinien (wersja 2)
19 - Dwie sowy (wersja 2)
Код:
Exact Audio Copy V0.99 prebeta 5 from 4. May 2009
EAC extraction logfile from 4. August 2010, 12:04
Seweryn Krajewski / Z Archiwum Polskiego Radia CD1
Used drive : HL-DT-STDVDRAM GSA-4167B Adapter: 0 ID: 0
Read mode : Secure
Utilize accurate stream : Yes
Defeat audio cache : Yes
Make use of C2 pointers : No
Read offset correction : 667
Overread into Lead-In and Lead-Out : No
Fill up missing offset samples with silence : Yes
Delete leading and trailing silent blocks : No
Null samples used in CRC calculations : Yes
Used interface : Installed external ASPI interface
Gap handling : Appended to previous track
Used output format : User Defined Encoder
Selected bitrate : 1024 kBit/s
Quality : High
Add ID3 tag : Yes
Command line compressor : C:\Program Files\FLAC\flac.exe
Additional command line options : -8 -T "artist=%a" -T "title=%t" -T "album=%g" -T "date=%y" -T "tracknumber=%n" -T "genre=%m" %s
TOC of the extracted CD
Track | Start | Length | Start sector | End sector
---------------------------------------------------------
1 | 0:00.00 | 3:14.50 | 0 | 14599
2 | 3:14.50 | 2:41.26 | 14600 | 26700
3 | 5:56.01 | 3:08.63 | 26701 | 40863
4 | 9:04.64 | 1:49.54 | 40864 | 49092
5 | 10:54.43 | 2:34.03 | 49093 | 60645
6 | 13:28.46 | 3:22.55 | 60646 | 75850
7 | 16:51.26 | 2:16.22 | 75851 | 86072
8 | 19:07.48 | 3:03.15 | 86073 | 99812
9 | 22:10.63 | 2:38.23 | 99813 | 111685
10 | 24:49.11 | 2:42.36 | 111686 | 123871
11 | 27:31.47 | 3:38.46 | 123872 | 140267
12 | 31:10.18 | 3:24.34 | 140268 | 155601
13 | 34:34.52 | 4:16.30 | 155602 | 174831
14 | 38:51.07 | 2:29.63 | 174832 | 186069
15 | 41:20.70 | 2:32.42 | 186070 | 197511
16 | 43:53.37 | 3:15.70 | 197512 | 212206
17 | 47:09.32 | 3:51.48 | 212207 | 229579
18 | 51:01.05 | 3:47.19 | 229580 | 246623
19 | 54:48.24 | 4:59.44 | 246624 | 269092
Track 1
Filename E:\Z Audio\EAC\Seweryn Krajewski - Z Archiwum Polskiego Radia\CD 1\01 - Kochałem panią.wav
Pre-gap length 0:00:02.00
Peak level 97.6 %
Track quality 100.0 %
Test CRC 89C4D365
Copy CRC 89C4D365
Accurately ripped (confidence 2) [5336310F]
Copy OK
Track 2
Filename E:\Z Audio\EAC\Seweryn Krajewski - Z Archiwum Polskiego Radia\CD 1\02 - Kwiat.wav
Peak level 99.7 %
Track quality 99.9 %
Test CRC 212D04AA
Copy CRC 212D04AA
Accurately ripped (confidence 2) [CA315C85]
Copy OK
Track 3
Filename E:\Z Audio\EAC\Seweryn Krajewski - Z Archiwum Polskiego Radia\CD 1\03 - Śpiewanka o kamykach.wav
Peak level 97.8 %
Track quality 100.0 %
Test CRC A3DC1461
Copy CRC A3DC1461
Accurately ripped (confidence 2) [75174B01]
Copy OK
Track 4
Filename E:\Z Audio\EAC\Seweryn Krajewski - Z Archiwum Polskiego Radia\CD 1\04 - Śpiewanka o pękniętym sercu.wav
Peak level 98.3 %
Track quality 100.0 %
Test CRC 955B3264
Copy CRC 955B3264
Accurately ripped (confidence 2) [D5D9810C]
Copy OK
Track 5
Filename E:\Z Audio\EAC\Seweryn Krajewski - Z Archiwum Polskiego Radia\CD 1\05 - Śpiewka o śmierci szeregowca Gwardii.wav
Peak level 99.9 %
Track quality 99.9 %
Test CRC B33D4A8A
Copy CRC B33D4A8A
Accurately ripped (confidence 2) [6601450E]
Copy OK
Track 6
Filename E:\Z Audio\EAC\Seweryn Krajewski - Z Archiwum Polskiego Radia\CD 1\06 - Pogoda na szczęście.wav
Peak level 99.1 %
Track quality 100.0 %
Test CRC E22B0DC0
Copy CRC E22B0DC0
Accurately ripped (confidence 2) [5857FBEE]
Copy OK
Track 7
Filename E:\Z Audio\EAC\Seweryn Krajewski - Z Archiwum Polskiego Radia\CD 1\07 - Co każdy chłopiec wiedziec powinien.wav
Peak level 98.0 %
Track quality 100.0 %
Test CRC 7760F050
Copy CRC 7760F050
Accurately ripped (confidence 2) [0D3CBBE1]
Copy OK
Track 8
Filename E:\Z Audio\EAC\Seweryn Krajewski - Z Archiwum Polskiego Radia\CD 1\08 - Daruj nam Wisło.wav
Peak level 99.2 %
Track quality 100.0 %
Test CRC 7FC50DC5
Copy CRC 7FC50DC5
Accurately ripped (confidence 2) [2D6088CF]
Copy OK
Track 9
Filename E:\Z Audio\EAC\Seweryn Krajewski - Z Archiwum Polskiego Radia\CD 1\09 - Dwie sowy.wav
Peak level 97.8 %
Track quality 100.0 %
Test CRC 94D91F22
Copy CRC 94D91F22
Accurately ripped (confidence 2) [7BF6BB5D]
Copy OK
Track 10
Filename E:\Z Audio\EAC\Seweryn Krajewski - Z Archiwum Polskiego Radia\CD 1\10 - Siądziemy.wav
Peak level 97.0 %
Track quality 100.0 %
Test CRC 043B47FC
Copy CRC 043B47FC
Accurately ripped (confidence 2) [54A06232]
Copy OK
Track 11
Filename E:\Z Audio\EAC\Seweryn Krajewski - Z Archiwum Polskiego Radia\CD 1\11 - Długie te nasze jesienie.wav
Peak level 97.3 %
Track quality 100.0 %
Test CRC 4D095FB4
Copy CRC 4D095FB4
Accurately ripped (confidence 2) [27B08344]
Copy OK
Track 12
Filename E:\Z Audio\EAC\Seweryn Krajewski - Z Archiwum Polskiego Radia\CD 1\12 - A jeśli ja szewcem jestem.wav
Peak level 99.9 %
Track quality 100.0 %
Test CRC 08CE81B9
Copy CRC 08CE81B9
Accurately ripped (confidence 2) [26ABF130]
Copy OK
Track 13
Filename E:\Z Audio\EAC\Seweryn Krajewski - Z Archiwum Polskiego Radia\CD 1\13 - Pod niebami.wav
Peak level 79.1 %
Track quality 100.0 %
Test CRC 539EBAD5
Copy CRC 539EBAD5
Accurately ripped (confidence 2) [B95E97CC]
Copy OK
Track 14
Filename E:\Z Audio\EAC\Seweryn Krajewski - Z Archiwum Polskiego Radia\CD 1\14 - Sama chciała.wav
Peak level 99.8 %
Track quality 100.0 %
Test CRC 514B511C
Copy CRC 514B511C
Accurately ripped (confidence 2) [3768E0EE]
Copy OK
Track 15
Filename E:\Z Audio\EAC\Seweryn Krajewski - Z Archiwum Polskiego Radia\CD 1\15 - Jakżes niestała.wav
Peak level 98.9 %
Track quality 100.0 %
Test CRC D65B591E
Copy CRC D65B591E
Accurately ripped (confidence 2) [0C28F48E]
Copy OK
Track 16
Filename E:\Z Audio\EAC\Seweryn Krajewski - Z Archiwum Polskiego Radia\CD 1\16 - Kiedy mnie już nie będzie.wav
Peak level 98.5 %
Track quality 100.0 %
Test CRC 0D98CE1D
Copy CRC 0D98CE1D
Accurately ripped (confidence 2) [387D0FE2]
Copy OK
Track 17
Filename E:\Z Audio\EAC\Seweryn Krajewski - Z Archiwum Polskiego Radia\CD 1\17 - Papier ścierny.wav
Peak level 98.8 %
Track quality 100.0 %
Test CRC E4AFDCBC
Copy CRC E4AFDCBC
Accurately ripped (confidence 2) [25AD41BB]
Copy OK
Track 18
Filename E:\Z Audio\EAC\Seweryn Krajewski - Z Archiwum Polskiego Radia\CD 1\18 - Stan podgorączkowy.wav
Peak level 96.2 %
Track quality 100.0 %
Test CRC BD5DAA8A
Copy CRC BD5DAA8A
Accurately ripped (confidence 2) [63613386]
Copy OK
Track 19
Filename E:\Z Audio\EAC\Seweryn Krajewski - Z Archiwum Polskiego Radia\CD 1\19 - Ziemio błękitno szara.wav
Peak level 96.6 %
Track quality 100.0 %
Test CRC 6C05A33E
Copy CRC 6C05A33E
Accurately ripped (confidence 2) [2656A3C9]
Copy OK
All tracks accurately ripped
No errors occurred
End of status report
Exact Audio Copy V0.99 prebeta 5 from 4. May 2009
EAC extraction logfile from 4. August 2010, 13:32
Seweryn Krajewski / Z Archiwum Polskiego Radia CD2
Used drive : HL-DT-STDVDRAM GSA-4167B Adapter: 0 ID: 0
Read mode : Secure
Utilize accurate stream : Yes
Defeat audio cache : Yes
Make use of C2 pointers : No
Read offset correction : 667
Overread into Lead-In and Lead-Out : No
Fill up missing offset samples with silence : Yes
Delete leading and trailing silent blocks : No
Null samples used in CRC calculations : Yes
Used interface : Installed external ASPI interface
Gap handling : Appended to previous track
Used output format : User Defined Encoder
Selected bitrate : 1024 kBit/s
Quality : High
Add ID3 tag : Yes
Command line compressor : C:\Program Files\FLAC\flac.exe
Additional command line options : -8 -T "artist=%a" -T "title=%t" -T "album=%g" -T "date=%y" -T "tracknumber=%n" -T "genre=%m" %s
TOC of the extracted CD
Track | Start | Length | Start sector | End sector
---------------------------------------------------------
1 | 0:00.00 | 2:42.12 | 0 | 12161
2 | 2:42.12 | 2:25.64 | 12162 | 23100
3 | 5:08.01 | 3:59.48 | 23101 | 41073
4 | 9:07.49 | 4:20.69 | 41074 | 60642
5 | 13:28.43 | 4:13.54 | 60643 | 79671
6 | 17:42.22 | 3:14.70 | 79672 | 94291
7 | 20:57.17 | 3:11.05 | 94292 | 108621
8 | 24:08.22 | 4:04.53 | 108622 | 126974
9 | 28:13.00 | 3:51.46 | 126975 | 144345
10 | 32:04.46 | 3:21.65 | 144346 | 159485
11 | 35:26.36 | 3:21.08 | 159486 | 174568
12 | 38:47.44 | 4:33.23 | 174569 | 195066
13 | 43:20.67 | 3:14.22 | 195067 | 209638
14 | 46:35.14 | 3:56.41 | 209639 | 227379
15 | 50:31.55 | 3:22.51 | 227380 | 242580
16 | 53:54.31 | 4:01.73 | 242581 | 260728
17 | 57:56.29 | 3:46.60 | 260729 | 277738
18 | 61:43.14 | 2:17.21 | 277739 | 288034
19 | 64:00.35 | 2:39.27 | 288035 | 299986
Track 1
Filename E:\Z Audio\EAC\Seweryn Krajewski - Z Archiwum Polskiego Radia\CD 2\01 - Gdzie kochają nas.wav
Pre-gap length 0:00:02.00
Peak level 98.7 %
Track quality 100.0 %
Test CRC 61955BC6
Copy CRC 61955BC6
Track not present in AccurateRip database
Copy OK
Track 2
Filename E:\Z Audio\EAC\Seweryn Krajewski - Z Archiwum Polskiego Radia\CD 2\02 - Ach skąd.wav
Peak level 98.6 %
Track quality 100.0 %
Test CRC 64C8B788
Copy CRC 64C8B788
Track not present in AccurateRip database
Copy OK
Track 3
Filename E:\Z Audio\EAC\Seweryn Krajewski - Z Archiwum Polskiego Radia\CD 2\03 - Byłem stary.wav
Peak level 99.5 %
Track quality 100.0 %
Test CRC 79DBBD47
Copy CRC 79DBBD47
Track not present in AccurateRip database
Copy OK
Track 4
Filename E:\Z Audio\EAC\Seweryn Krajewski - Z Archiwum Polskiego Radia\CD 2\04 - Pijmy wino za kolegów.wav
Peak level 95.9 %
Track quality 100.0 %
Test CRC 0E11C93A
Copy CRC 0E11C93A
Track not present in AccurateRip database
Copy OK
Track 5
Filename E:\Z Audio\EAC\Seweryn Krajewski - Z Archiwum Polskiego Radia\CD 2\05 - Serce wróć.wav
Peak level 96.0 %
Track quality 100.0 %
Test CRC A54034D4
Copy CRC A54034D4
Track not present in AccurateRip database
Copy OK
Track 6
Filename E:\Z Audio\EAC\Seweryn Krajewski - Z Archiwum Polskiego Radia\CD 2\06 - Najpiękniejsza.wav
Peak level 92.0 %
Track quality 99.9 %
Test CRC E83A4348
Copy CRC E83A4348
Track not present in AccurateRip database
Copy OK
Track 7
Filename E:\Z Audio\EAC\Seweryn Krajewski - Z Archiwum Polskiego Radia\CD 2\07 - Przemija uroda w nas.wav
Peak level 94.9 %
Track quality 100.0 %
Test CRC 05D7754A
Copy CRC 05D7754A
Track not present in AccurateRip database
Copy OK
Track 8
Filename E:\Z Audio\EAC\Seweryn Krajewski - Z Archiwum Polskiego Radia\CD 2\08 - Kolęda rozsianych po świecie.wav
Peak level 92.7 %
Track quality 99.9 %
Test CRC 4E213760
Copy CRC 4E213760
Track not present in AccurateRip database
Copy OK
Track 9
Filename E:\Z Audio\EAC\Seweryn Krajewski - Z Archiwum Polskiego Radia\CD 2\09 - O gwiazdeczko coś błyszczała.wav
Peak level 95.5 %
Track quality 100.0 %
Test CRC 8A507C20
Copy CRC 8A507C20
Track not present in AccurateRip database
Copy OK
Track 10
Filename E:\Z Audio\EAC\Seweryn Krajewski - Z Archiwum Polskiego Radia\CD 2\10 - Chory na smutek.wav
Peak level 94.6 %
Track quality 100.0 %
Test CRC 0F9CF0AB
Copy CRC 0F9CF0AB
Track not present in AccurateRip database
Copy OK
Track 11
Filename E:\Z Audio\EAC\Seweryn Krajewski - Z Archiwum Polskiego Radia\CD 2\11 - Nie tylko ja.wav
Peak level 93.0 %
Track quality 100.0 %
Test CRC 90195E05
Copy CRC 90195E05
Track not present in AccurateRip database
Copy OK
Track 12
Filename E:\Z Audio\EAC\Seweryn Krajewski - Z Archiwum Polskiego Radia\CD 2\12 - Wakacje w Amsterdamie.wav
Peak level 92.3 %
Track quality 100.0 %
Test CRC C90AA15A
Copy CRC C90AA15A
Track not present in AccurateRip database
Copy OK
Track 13
Filename E:\Z Audio\EAC\Seweryn Krajewski - Z Archiwum Polskiego Radia\CD 2\13 - Wszyscy do szalup.wav
Peak level 91.1 %
Track quality 100.0 %
Test CRC 3F627098
Copy CRC 3F627098
Track not present in AccurateRip database
Copy OK
Track 14
Filename E:\Z Audio\EAC\Seweryn Krajewski - Z Archiwum Polskiego Radia\CD 2\14 - Lekki zawrót głowy.wav
Peak level 94.3 %
Track quality 100.0 %
Test CRC 0BA196C5
Copy CRC 0BA196C5
Track not present in AccurateRip database
Copy OK
Track 15
Filename E:\Z Audio\EAC\Seweryn Krajewski - Z Archiwum Polskiego Radia\CD 2\15 - Proste wzruszenie.wav
Peak level 95.9 %
Track quality 100.0 %
Test CRC 1F9AE3B9
Copy CRC 1F9AE3B9
Track not present in AccurateRip database
Copy OK
Track 16
Filename E:\Z Audio\EAC\Seweryn Krajewski - Z Archiwum Polskiego Radia\CD 2\16 - Broadway.wav
Peak level 95.9 %
Track quality 100.0 %
Test CRC D6F08A5B
Copy CRC D6F08A5B
Track not present in AccurateRip database
Copy OK
Track 17
Filename E:\Z Audio\EAC\Seweryn Krajewski - Z Archiwum Polskiego Radia\CD 2\17 - Mija już wiek.wav
Peak level 89.4 %
Track quality 99.9 %
Test CRC 1E2067F4
Copy CRC 1E2067F4
Track not present in AccurateRip database
Copy OK
Track 18
Filename E:\Z Audio\EAC\Seweryn Krajewski - Z Archiwum Polskiego Radia\CD 2\18 - Co każdy chłopiec wiedzieć powinien (wersja 2).wav
Peak level 95.4 %
Track quality 100.0 %
Test CRC 9F5F8EC3
Copy CRC 9F5F8EC3
Track not present in AccurateRip database
Copy OK
Track 19
Filename E:\Z Audio\EAC\Seweryn Krajewski - Z Archiwum Polskiego Radia\CD 2\19 - Dwie sowy (wersja 2).wav
Peak level 97.2 %
Track quality 100.0 %
Test CRC 4D9A1C6D
Copy CRC 4D9A1C6D
Track not present in AccurateRip database
Copy OK
None of the tracks are present in the AccurateRip database
No errors occurred
End of status report
Код:
REM GENRE Pop
REM DATE 2008
REM DISCID FA0E0313
REM COMMENT "ExactAudioCopy v0.99pb5"
PERFORMER "Seweryn Krajewski"
TITLE "Z Archiwum Polskiego Radia CD1"
FILE "01 - Kochałem panią.flac" WAVE
TRACK 01 AUDIO
TITLE "Kochałem panią"
PERFORMER "Seweryn Krajewski"
INDEX 01 00:00:00
FILE "02 - Kwiat.flac" WAVE
TRACK 02 AUDIO
TITLE "Kwiat"
PERFORMER "Seweryn Krajewski"
INDEX 01 00:00:00
FILE "03 - Śpiewanka o kamykach.flac" WAVE
TRACK 03 AUDIO
TITLE "Śpiewanka o kamykach"
PERFORMER "Seweryn Krajewski"
INDEX 01 00:00:00
FILE "04 - Śpiewanka o pękniętym sercu.flac" WAVE
TRACK 04 AUDIO
TITLE "Śpiewanka o pękniętym sercu"
PERFORMER "Seweryn Krajewski"
INDEX 01 00:00:00
FILE "05 - Śpiewka o śmierci szeregowca Gwardii.flac" WAVE
TRACK 05 AUDIO
TITLE "Śpiewka o śmierci szeregowca Gwardii"
PERFORMER "Seweryn Krajewski"
INDEX 01 00:00:00
FILE "06 - Pogoda na szczęście.flac" WAVE
TRACK 06 AUDIO
TITLE "Pogoda na szczęście"
PERFORMER "Seweryn Krajewski"
INDEX 01 00:00:00
FILE "07 - Co każdy chłopiec wiedziec powinien.flac" WAVE
TRACK 07 AUDIO
TITLE "Co każdy chłopiec wiedziec powinien"
PERFORMER "Seweryn Krajewski"
INDEX 01 00:00:00
FILE "08 - Daruj nam Wisło.flac" WAVE
TRACK 08 AUDIO
TITLE "Daruj nam Wisło"
PERFORMER "Seweryn Krajewski"
INDEX 01 00:00:00
FILE "09 - Dwie sowy.flac" WAVE
TRACK 09 AUDIO
TITLE "Dwie sowy"
PERFORMER "Seweryn Krajewski"
INDEX 01 00:00:00
FILE "10 - Siądziemy.flac" WAVE
TRACK 10 AUDIO
TITLE "Siądziemy"
PERFORMER "Seweryn Krajewski"
INDEX 01 00:00:00
FILE "11 - Długie te nasze jesienie.flac" WAVE
TRACK 11 AUDIO
TITLE "Długie te nasze jesienie"
PERFORMER "Seweryn Krajewski"
INDEX 01 00:00:00
FILE "12 - A jeśli ja szewcem jestem.flac" WAVE
TRACK 12 AUDIO
TITLE "A jeśli ja szewcem jestem"
PERFORMER "Seweryn Krajewski"
INDEX 01 00:00:00
FILE "13 - Pod niebami.flac" WAVE
TRACK 13 AUDIO
TITLE "Pod niebami"
PERFORMER "Seweryn Krajewski"
INDEX 01 00:00:00
FILE "14 - Sama chciała.flac" WAVE
TRACK 14 AUDIO
TITLE "Sama chciała"
PERFORMER "Seweryn Krajewski"
INDEX 01 00:00:00
FILE "15 - Jakżes niestała.flac" WAVE
TRACK 15 AUDIO
TITLE "Jakżes niestała"
PERFORMER "Seweryn Krajewski"
INDEX 01 00:00:00
FILE "16 - Kiedy mnie już nie będzie.flac" WAVE
TRACK 16 AUDIO
TITLE "Kiedy mnie już nie będzie"
PERFORMER "Seweryn Krajewski"
INDEX 01 00:00:00
FILE "17 - Papier ścierny.flac" WAVE
TRACK 17 AUDIO
TITLE "Papier ścierny"
PERFORMER "Seweryn Krajewski"
INDEX 01 00:00:00
FILE "18 - Stan podgorączkowy.flac" WAVE
TRACK 18 AUDIO
TITLE "Stan podgorączkowy"
PERFORMER "Seweryn Krajewski"
INDEX 01 00:00:00
FILE "19 - Ziemio błękitno szara.flac" WAVE
TRACK 19 AUDIO
TITLE "Ziemio błękitno szara"
PERFORMER "Seweryn Krajewski"
INDEX 01 00:00:00
REM GENRE Pop
REM DATE 2008
REM DISCID 070F9F13
REM COMMENT "ExactAudioCopy v0.99pb5"
PERFORMER "Seweryn Krajewski"
TITLE "Z Archiwum Polskiego Radia CD2"
FILE "01 - Gdzie kochają nas.flac" WAVE
TRACK 01 AUDIO
TITLE "Gdzie kochają nas"
PERFORMER "Seweryn Krajewski"
INDEX 01 00:00:00
FILE "02 - Ach skąd.flac" WAVE
TRACK 02 AUDIO
TITLE "Ach skąd"
PERFORMER "Seweryn Krajewski"
INDEX 01 00:00:00
FILE "03 - Byłem stary.flac" WAVE
TRACK 03 AUDIO
TITLE "Byłem stary"
PERFORMER "Seweryn Krajewski"
INDEX 01 00:00:00
FILE "04 - Pijmy wino za kolegów.flac" WAVE
TRACK 04 AUDIO
TITLE "Pijmy wino za kolegów"
PERFORMER "Seweryn Krajewski"
INDEX 01 00:00:00
FILE "05 - Serce wróć.flac" WAVE
TRACK 05 AUDIO
TITLE "Serce wróć"
PERFORMER "Seweryn Krajewski"
INDEX 01 00:00:00
FILE "06 - Najpiękniejsza.flac" WAVE
TRACK 06 AUDIO
TITLE "Najpiękniejsza"
PERFORMER "Seweryn Krajewski"
INDEX 01 00:00:00
FILE "07 - Przemija uroda w nas.flac" WAVE
TRACK 07 AUDIO
TITLE "Przemija uroda w nas"
PERFORMER "Seweryn Krajewski"
INDEX 01 00:00:00
FILE "08 - Kolęda rozsianych po świecie.flac" WAVE
TRACK 08 AUDIO
TITLE "Kolęda rozsianych po świecie"
PERFORMER "Seweryn Krajewski"
INDEX 01 00:00:00
FILE "09 - O gwiazdeczko coś błyszczała.flac" WAVE
TRACK 09 AUDIO
TITLE "O gwiazdeczko coś błyszczała"
PERFORMER "Seweryn Krajewski"
INDEX 01 00:00:00
FILE "10 - Chory na smutek.flac" WAVE
TRACK 10 AUDIO
TITLE "Chory na smutek"
PERFORMER "Seweryn Krajewski"
INDEX 01 00:00:00
FILE "11 - Nie tylko ja.flac" WAVE
TRACK 11 AUDIO
TITLE "Nie tylko ja"
PERFORMER "Seweryn Krajewski"
INDEX 01 00:00:00
FILE "12 - Wakacje w Amsterdamie.flac" WAVE
TRACK 12 AUDIO
TITLE "Wakacje w Amsterdamie"
PERFORMER "Seweryn Krajewski"
INDEX 01 00:00:00
FILE "13 - Wszyscy do szalup.flac" WAVE
TRACK 13 AUDIO
TITLE "Wszyscy do szalup"
PERFORMER "Seweryn Krajewski"
INDEX 01 00:00:00
FILE "14 - Lekki zawrót głowy.flac" WAVE
TRACK 14 AUDIO
TITLE "Lekki zawrót głowy"
PERFORMER "Seweryn Krajewski"
INDEX 01 00:00:00
FILE "15 - Proste wzruszenie.flac" WAVE
TRACK 15 AUDIO
TITLE "Proste wzruszenie"
PERFORMER "Seweryn Krajewski"
INDEX 01 00:00:00
FILE "16 - Broadway.flac" WAVE
TRACK 16 AUDIO
TITLE "Broadway"
PERFORMER "Seweryn Krajewski"
INDEX 01 00:00:00
FILE "17 - Mija już wiek.flac" WAVE
TRACK 17 AUDIO
TITLE "Mija już wiek"
PERFORMER "Seweryn Krajewski"
INDEX 01 00:00:00
FILE "18 - Co każdy chłopiec wiedzieć powinien (wersja 2).flac" WAVE
TRACK 18 AUDIO
TITLE "Co każdy chłopiec wiedzieć powinien (wersja 2)"
PERFORMER "Seweryn Krajewski"
INDEX 01 00:00:00
FILE "19 - Dwie sowy (wersja 2).flac" WAVE
TRACK 19 AUDIO
TITLE "Dwie sowy (wersja 2)"
PERFORMER "Seweryn Krajewski"
INDEX 01 00:00:00
Z archiwum Polskiego Radia. Vol. 10
Правила, инструкции, FAQ!!!
Торрент  Добавлен [26 мар 2019, 19:52] Скачать торрент Магнет ссылка
Скачать торрент
[ Размер 18.58 КБ / Просмотров 5 ]

Статус
Проверен 
 
Размер  742.85 МБ
Приватный: Нет (DHT включён)
.torrent скачан  0
 


     Отправить личное сообщение
   
Страница 1 из 1
Показать сообщения за:  Поле сортировки  
Начать новую тему Ответить на тему


Сейчас этот форум просматривают: нет зарегистрированных пользователей и гости: 0


Вы не можете начинать темы
Вы не можете отвечать на сообщения
Вы не можете редактировать свои сообщения
Вы не можете удалять свои сообщения
Вы не можете добавлять вложения

Перейти:  
cron
cron