Начать новую тему Ответить на тему
Статистика раздачи
Размер: 246.14 МБ | Добавлен: 26 мар 2019, 18:54 | Скачали: 0
Сидеров: 0  [0 байт/сек]    Личеров: 0  [0 байт/сек]
Пред. тема | След. тема 

Автор
Сообщение

СообщениеДобавлено: 26 мар 2019, 18:54 

Ответить с цитатой 

A Balladeer / A Wolf At The Door
Жанр: Pop Rock
Носитель: CD
Страна-производитель диска (релиза): EU
Год издания: 2016
Издатель (лейбл): Zip Records
Номер по каталогу: 5051083104319
Страна исполнителя (группы): NL
Аудиокодек: FLAC (*.flac)
Тип рипа: image+.cue
Битрейт аудио: lossless
Продолжительность: 00:39:03
Источник (релизер): usenet
Наличие сканов в содержимом раздачи: да
Треклист:
01. Incompatible (2:51)
02. A Wolf At The Door (3:18)
03. In Your Arms I Was Somebody (3:13)
04. November (3:19)
05. Wishes, Horses (3:49)
06. Mob Wife (5:55)
07. Trust Fall (3:31)
08. You Have Not Been Given Love (3:25)
09. Never-Never Land (5:00)
10. Every Herd Has Its Lone Wolf (1:03)
11. Therefore (3:41)
Код:
Exact Audio Copy V1.1 from 23. June 2015
EAC extraction logfile from 12. March 2016, 20:39
A Balladeer / A Wolf At The Door
Used drive  : HL-DT-STDVDRAM GH24NSD1   Adapter: 0  ID: 0
Read mode               : Secure
Utilize accurate stream : Yes
Defeat audio cache      : Yes
Make use of C2 pointers : No
Read offset correction                      : 6
Overread into Lead-In and Lead-Out          : No
Fill up missing offset samples with silence : Yes
Delete leading and trailing silent blocks   : No
Null samples used in CRC calculations       : Yes
Used interface                              : Installed external ASPI interface
Used output format : Internal WAV Routines
Sample format      : 44.100 Hz; 16 Bit; Stereo
TOC of the extracted CD
     Track |   Start  |  Length  | Start sector | End sector
    ---------------------------------------------------------
        1  |  0:00.00 |  2:51.09 |         0    |    12833
        2  |  2:51.09 |  3:17.50 |     12834    |    27658
        3  |  6:08.59 |  3:12.70 |     27659    |    42128
        4  |  9:21.54 |  3:18.70 |     42129    |    57048
        5  | 12:40.49 |  3:48.42 |     57049    |    74190
        6  | 16:29.16 |  5:54.43 |     74191    |   100783
        7  | 22:23.59 |  3:31.22 |    100784    |   116630
        8  | 25:55.06 |  3:24.58 |    116631    |   131988
        9  | 29:19.64 |  5:00.00 |    131989    |   154488
       10  | 34:19.64 |  1:03.24 |    154489    |   159237
       11  | 35:23.13 |  3:40.60 |    159238    |   175797
Range status and errors
Selected range
     Filename E:\SPOT NIEUW\A Balladeer - A Wolf At The Door (EAC)\A Balladeer - A Wolf At The Door.wav
     Peak level 98.9 %
     Extraction speed 6.6 X
     Range quality 100.0 %
     Test CRC 482658C8
     Copy CRC 482658C8
     Copy OK
No errors occurred
AccurateRip summary
Track  1  not present in database
Track  2  not present in database
Track  3  not present in database
Track  4  not present in database
Track  5  not present in database
Track  6  not present in database
Track  7  not present in database
Track  8  not present in database
Track  9  not present in database
Track 10  not present in database
Track 11  not present in database
None of the tracks are present in the AccurateRip database
End of status report
http://www.aballadeer.com/
http://en.wikipedia.org/wiki/A_Balladeer
https://www.youtube.com/user/aballadeer
Правила, инструкции, FAQ!!!
Торрент  Добавлен [26 мар 2019, 18:54] Скачать торрент Магнет ссылка
Скачать торрент
[ Размер 2.72 КБ / Просмотров 1 ]

Статус
Проверен 
 
Размер  246.14 МБ
Приватный: Нет (DHT включён)
.torrent скачан  0
 


     Отправить личное сообщение
   
Страница 1 из 1
Показать сообщения за:  Поле сортировки  
Начать новую тему Ответить на тему


Сейчас этот форум просматривают: нет зарегистрированных пользователей и гости: 0


Вы не можете начинать темы
Вы не можете отвечать на сообщения
Вы не можете редактировать свои сообщения
Вы не можете удалять свои сообщения
Вы не можете добавлять вложения

Перейти:  
cron