Начать новую тему Ответить на тему
Статистика раздачи
Размер: 384.67 МБ | Добавлен: 26 мар 2019, 19:36 | Скачали: 0
Сидеров: 1  [0 байт/сек]    Личеров: 0  [0 байт/сек]
Пред. тема | След. тема 

Автор
Сообщение

СообщениеДобавлено: 26 мар 2019, 19:36 

Ответить с цитатой 

Arena Sweden - Arena Sweden
Жанр: Pop Rock, Ballad
Лейбл: GMR Music Group
Изготовитель: Peach Music (Peach Records)
Каталог: PEACHCD004
Страна/Сделано: Sweden
Год издания: 2003
Тип рипа: Image+.Cue
Аудио кодек: FLAC [*.flac]
Метод сжатия аудио: lossless
Продолжительность: 38:49
Источник (релизёр): Рипы с собственных CD (RoxMan)
Наличие сканов: Да
Треклист:
01. Take On The World (3:43)
02. Show Me The Way (3:24)
03. Heaven (3:43)
04. Love On The Line (3:59)
05. You Are The One (2:35)
06. Don't Be Afraid (3:29)
07. I Want To Love You (3:45)
08. Pray For The Children (3:10)
09. State Of Your Heart (3:36)
10. After The Hurt (3:14)
11. I Believe (4:09)
О группе: бывшая группа Bad Habit
Состав группы:
Dennis Radoicic - ведущий вокал
Hal Johnston (Hal Marabel) - гитара, клавишные, программирование
Thomas Nyberg - бэк-вокал
Chister Hermodsson - клавишные, программирование
Код:
Exact Audio Copy V1.0 beta 3 from 29. August 2011
EAC extraction logfile from 9. August 2013, 12:56
Arena Sweden / Arena Sweden
Used drive  : ASUS    DRW-20B1ST   Adapter: 2  ID: 0
Read mode               : Secure
Utilize accurate stream : Yes
Defeat audio cache      : Yes
Make use of C2 pointers : No
Read offset correction                      : 6
Overread into Lead-In and Lead-Out          : No
Fill up missing offset samples with silence : Yes
Delete leading and trailing silent blocks   : No
Null samples used in CRC calculations       : Yes
Used interface                              : Native Win32 interface for Win NT & 2000
Used output format              : User Defined Encoder
Selected bitrate                : 1024 kBit/s
Quality                         : High
Add ID3 tag                     : No
Command line compressor         : C:\Program Files\Exact Audio Copy\Flac\flac.exe
Additional command line options : -V -8 -T "Date=%year%" -T "Genre=%genre%" -T "Comment=Rip made RoxMan, Enjoy!" %source%
TOC of the extracted CD
     Track |   Start  |  Length  | Start sector | End sector
    ---------------------------------------------------------
        1  |  0:00.00 |  3:43.35 |         0    |    16759
        2  |  3:43.35 |  3:23.72 |     16760    |    32056
        3  |  7:07.32 |  3:43.00 |     32057    |    48781
        4  | 10:50.32 |  3:59.08 |     48782    |    66714
        5  | 14:49.40 |  2:35.30 |     66715    |    78369
        6  | 17:24.70 |  3:29.10 |     78370    |    94054
        7  | 20:54.05 |  3:45.25 |     94055    |   110954
        8  | 24:39.30 |  3:10.35 |    110955    |   125239
        9  | 27:49.65 |  3:36.32 |    125240    |   141471
       10  | 31:26.22 |  3:13.58 |    141472    |   156004
       11  | 34:40.05 |  4:09.02 |    156005    |   174681
Range status and errors
Selected range
     Filename D:\Arena Sweden - Arena Sweden.wav
     Peak level 98.7 %
     Extraction speed 7.8 X
     Range quality 100.0 %
     Test CRC 219F576F
     Copy CRC 219F576F
     Copy OK
No errors occurred
AccurateRip summary
Track  1  not present in database
Track  2  not present in database
Track  3  not present in database
Track  4  not present in database
Track  5  not present in database
Track  6  not present in database
Track  7  not present in database
Track  8  not present in database
Track  9  not present in database
Track 10  not present in database
Track 11  not present in database
None of the tracks are present in the AccurateRip database
End of status report
==== Log checksum 37505FD984372FC4272A670F9D2610E870662295F1040705FAA56A8D4D7B3D47 ====


PS: раздача с 18:00 до 23:30 (время московское).
Поддерживая раздачу, вы даёте возможность скачать её другим !
Правила, инструкции, FAQ!!!
Торрент  Добавлен [26 мар 2019, 19:36] Скачать торрент Магнет ссылка
Скачать торрент
[ Размер 16.36 КБ / Просмотров 1 ]

Статус
Проверен 
 
Размер  384.67 МБ
Приватный: Нет (DHT включён)
.torrent скачан  0
 


     Отправить личное сообщение
   
Страница 1 из 1
Показать сообщения за:  Поле сортировки  
Начать новую тему Ответить на тему


Сейчас этот форум просматривают: нет зарегистрированных пользователей и гости: 0


Вы не можете начинать темы
Вы не можете отвечать на сообщения
Вы не можете редактировать свои сообщения
Вы не можете удалять свои сообщения
Вы не можете добавлять вложения

Перейти:  
cron