Начать новую тему Ответить на тему
Статистика раздачи
Размер: 454.93 МБ | Добавлен: 26 мар 2019, 20:11 | Скачали: 0
Сидеров: 0  [0 байт/сек]    Личеров: 0  [0 байт/сек]
Пред. тема | След. тема 

Автор
Сообщение

СообщениеДобавлено: 26 мар 2019, 20:11 

Ответить с цитатой 

Airhead / Boing!
Жанр: Pop Rock,Baggy , Madchester
Носитель: CD
Страна-производитель диска: Germany
Год издания: 1992
Издатель (лейбл): Korova warner music UK ltd.
Номер по каталогу: 9031-76303-2
Страна: United Kingdom
Аудиокодек: FLAC (*.flac)
Тип рипа: tracks+.cue
Битрейт аудио: lossless
Продолжительность: 00:50:01
Источник (релизер): свой диск
Наличие сканов в содержимом раздачи: да
Треклист:
01. - Scrap Happy - 04:22
02. - I Might Fall - 04:14
03. - Right Now - 03:22
04. - Funny How - 03:38
05. - Easy - 04:53
06. - Counting Sheep - 03:30
07. - I Don't Mind - 03:43
08. - Congratulations - 04:42
09. - Wish You Were Here - 03:47
10. - Isn't It Rich - 04:15
11. - Everybody Needs - 04:21
12. - Funny How (Original) - 05:08
Код:
Exact Audio Copy V1.0 beta 3 from 29. August 2011
Отчёт EAC об извлечении, выполненном 14. июля 2014, 14:04
Airhead / Boing!
Дисковод: ASUS    DRW-24B3ST   Adapter: 1  ID: 0
Режим чтения                 : Достоверность
Использование точного потока : Да
Отключение кэша аудио        : Да
Использование указателей C2  : Нет
Коррекция смещения при чтении                     : 6
Способность читать области Lead-in и Lead-out     : Нет
Заполнение пропущенных сэмплов тишиной            : Да
Удаление блоков с тишиной в начале и конце        : Нет
При вычислениях CRC использовались нулевые сэмплы : Да
Интерфейс                                         : Встроенный Win32-интерфейс для Win NT/2000
Обработка зазоров                                 : Добавлено к предыдущему треку
Выходной формат          : Пользовательский кодировщик
Выбранный битрейт        : 768 kBit/s
Качество                 : Высокий
Добавление ID3-тега      : Нет
Утилита сжатия           : C:\Program Files\FLAC\flac.exe
Дополнительные параметры :  -V -8 -T "Genre=%genre%" -T "Artist=%artist%" -T "Title=%title%" -T "Album=%albumtitle%" -T "Date=%year%" -T "Tracknumber=%tracknr%" -T "Comment=%comment%" %source%
TOC извлечённого CD
     Трек |   Старт  | Длительность | Начальный сектор | Конечный сектор
    ---------------------------------------------------------------------
       1  |  0:00.00 |    4:22.53   |           0      |      19702
       2  |  4:22.53 |    4:14.72   |       19703      |      38824
       3  |  8:37.50 |    3:22.65   |       38825      |      54039
       4  | 12:00.40 |    3:38.65   |       54040      |      70454
       5  | 15:39.30 |    4:53.33   |       70455      |      92462
       6  | 20:32.63 |    3:30.07   |       92463      |     108219
       7  | 24:02.70 |    3:43.60   |      108220      |     125004
       8  | 27:46.55 |    4:42.18   |      125005      |     146172
       9  | 32:28.73 |    3:47.32   |      146173      |     163229
      10  | 36:16.30 |    4:15.50   |      163230      |     182404
      11  | 40:32.05 |    4:21.45   |      182405      |     202024
      12  | 44:53.50 |    5:08.25   |      202025      |     225149
Трек  1
     Имя файла C:\Users\Сергей\Desktop\EAC\01 Scrap Happy.wav
     Длина предзазора  0:00:02.00
     Пиковый уровень 95.4 %
     Скорость извлечения 3.4 X
     Качество трека 100.0 %
     CRC теста 1D5234E6
     CRC копии 1D5234E6
     Точное извлечение (достоверность 2)  [4A41CCF0]  (AR v2)
     Копирование... OK
Трек  2
     Имя файла C:\Users\Сергей\Desktop\EAC\02 I Might Fall.wav
     Пиковый уровень 98.5 %
     Скорость извлечения 3.1 X
     Качество трека 99.9 %
     CRC теста EE1B1511
     CRC копии EE1B1511
     Точное извлечение (достоверность 2)  [C64AB10A]  (AR v2)
     Копирование... OK
Трек  3
     Имя файла C:\Users\Сергей\Desktop\EAC\03 Right Now.wav
     Пиковый уровень 100.0 %
     Скорость извлечения 3.2 X
     Качество трека 99.9 %
     CRC теста 468F99B1
     CRC копии 468F99B1
     Точное извлечение (достоверность 2)  [442D48CD]  (AR v2)
     Копирование... OK
Трек  4
     Имя файла C:\Users\Сергей\Desktop\EAC\04 Funny How.wav
     Длина предзазора  0:00:00.62
     Пиковый уровень 100.0 %
     Скорость извлечения 4.4 X
     Качество трека 100.0 %
     CRC теста 5AE2D73E
     CRC копии 5AE2D73E
     Точное извлечение (достоверность 2)  [78D48520]  (AR v2)
     Копирование... OK
Трек  5
     Имя файла C:\Users\Сергей\Desktop\EAC\05 Easy.wav
     Длина предзазора  0:00:00.27
     Пиковый уровень 100.0 %
     Скорость извлечения 4.0 X
     Качество трека 99.9 %
     CRC теста 9DAC2676
     CRC копии 9DAC2676
     Точное извлечение (достоверность 2)  [37035605]  (AR v2)
     Копирование... OK
Трек  6
     Имя файла C:\Users\Сергей\Desktop\EAC\06 Counting Sheep.wav
     Длина предзазора  0:00:01.65
     Пиковый уровень 100.0 %
     Скорость извлечения 4.9 X
     Качество трека 100.0 %
     CRC теста 6988933F
     CRC копии 6988933F
     Точное извлечение (достоверность 2)  [767F84DC]  (AR v2)
     Копирование... OK
Трек  7
     Имя файла C:\Users\Сергей\Desktop\EAC\07 I Don't Mind.wav
     Пиковый уровень 100.0 %
     Скорость извлечения 5.2 X
     Качество трека 100.0 %
     CRC теста 3A93F588
     CRC копии 3A93F588
     Точное извлечение (достоверность 2)  [94947CC2]  (AR v2)
     Копирование... OK
Трек  8
     Имя файла C:\Users\Сергей\Desktop\EAC\08 Congratulations.wav
     Пиковый уровень 100.0 %
     Скорость извлечения 5.6 X
     Качество трека 100.0 %
     CRC теста 38A4A4B5
     CRC копии 38A4A4B5
     Точное извлечение (достоверность 2)  [CB0C2D4A]  (AR v2)
     Копирование... OK
Трек  9
     Имя файла C:\Users\Сергей\Desktop\EAC\09 Wish You Were Here.wav
     Длина предзазора  0:00:01.18
     Пиковый уровень 100.0 %
     Скорость извлечения 4.4 X
     Качество трека 99.9 %
     CRC теста 10F5969D
     CRC копии 10F5969D
     Точное извлечение (достоверность 2)  [0BD23D21]  (AR v2)
     Копирование... OK
Трек 10
     Имя файла C:\Users\Сергей\Desktop\EAC\10 Isn't It Rich.wav
     Пиковый уровень 100.0 %
     Скорость извлечения 5.9 X
     Качество трека 100.0 %
     CRC теста 9224C8A6
     CRC копии 9224C8A6
     Точное извлечение (достоверность 2)  [B52EEFE0]  (AR v2)
     Копирование... OK
Трек 11
     Имя файла C:\Users\Сергей\Desktop\EAC\11 Everybody Needs.wav
     Длина предзазора  0:00:01.47
     Пиковый уровень 100.0 %
     Скорость извлечения 5.0 X
     Качество трека 99.9 %
     CRC теста 49041BCD
     CRC копии 49041BCD
     Точное извлечение (достоверность 2)  [42CFD62A]  (AR v2)
     Копирование... OK
Трек 12
     Имя файла C:\Users\Сергей\Desktop\EAC\12 Funny How (Original).wav
     Длина предзазора  0:00:01.62
     Пиковый уровень 100.0 %
     Скорость извлечения 6.6 X
     Качество трека 100.0 %
     CRC теста 1DE9A5F0
     CRC копии 1DE9A5F0
     Точное извлечение (достоверность 2)  [BAC38C45]  (AR v2)
     Копирование... OK
Все треки извлечены точно
Ошибок не произошло
Конец отчёта
==== Контрольная сумма отчёта 378DADC94FACB9B8F231AAC0997C2983873A97E8EDA0C83CE2F4CB72BC2A97C7 ====
Код:
REM GENRE Rock
REM DATE 1991
REM DISCID A60BBA0C
REM COMMENT "ExactAudioCopy v1.0b3"
PERFORMER "Airhead"
TITLE "Boing!"
FILE "01 Scrap Happy.wav" WAVE
  TRACK 01 AUDIO
    TITLE "Scrap Happy"
    PERFORMER "Airhead"
    INDEX 01 00:00:00
FILE "02 I Might Fall.wav" WAVE
  TRACK 02 AUDIO
    TITLE "I Might Fall"
    PERFORMER "Airhead"
    INDEX 01 00:00:00
FILE "03 Right Now.wav" WAVE
  TRACK 03 AUDIO
    TITLE "Right Now"
    PERFORMER "Airhead"
    INDEX 01 00:00:00
  TRACK 04 AUDIO
    TITLE "Funny How"
    PERFORMER "Airhead"
    INDEX 00 03:22:03
FILE "04 Funny How.wav" WAVE
    INDEX 01 00:00:00
  TRACK 05 AUDIO
    TITLE "Easy"
    PERFORMER "Airhead"
    INDEX 00 03:38:38
FILE "05 Easy.wav" WAVE
    INDEX 01 00:00:00
  TRACK 06 AUDIO
    TITLE "Counting Sheep"
    PERFORMER "Airhead"
    INDEX 00 04:51:43
FILE "06 Counting Sheep.wav" WAVE
    INDEX 01 00:00:00
FILE "07 I Don't Mind.wav" WAVE
  TRACK 07 AUDIO
    TITLE "I Don't Mind"
    PERFORMER "Airhead"
    INDEX 01 00:00:00
FILE "08 Congratulations.wav" WAVE
  TRACK 08 AUDIO
    TITLE "Congratulations"
    PERFORMER "Airhead"
    INDEX 01 00:00:00
  TRACK 09 AUDIO
    TITLE "Wish You Were Here"
    PERFORMER "Airhead"
    INDEX 00 04:41:00
FILE "09 Wish You Were Here.wav" WAVE
    INDEX 01 00:00:00
FILE "10 Isn't It Rich.wav" WAVE
  TRACK 10 AUDIO
    TITLE "Isn't It Rich"
    PERFORMER "Airhead"
    INDEX 01 00:00:00
  TRACK 11 AUDIO
    TITLE "Everybody Needs"
    PERFORMER "Airhead"
    INDEX 00 04:14:03
FILE "11 Everybody Needs.wav" WAVE
    INDEX 01 00:00:00
  TRACK 12 AUDIO
    TITLE "Funny How (Original)"
    PERFORMER "Airhead"
    INDEX 00 04:19:58
FILE "12 Funny How (Original).wav" WAVE
    INDEX 01 00:00:00
Доп. информация: http://rateyourmusic.com/artist/airhead
Michael Wallis - vocals, guitar
Sam Kesteven - drums
Ben Kesteven - bass
Steve Marshall - keyboards
Правила, инструкции, FAQ!!!
Торрент  Добавлен [26 мар 2019, 20:11] Скачать торрент Магнет ссылка
Скачать торрент
[ Размер 19.29 КБ / Просмотров 5 ]

Статус
Проверен 
 
Размер  454.93 МБ
Приватный: Нет (DHT включён)
.torrent скачан  0
 


     Отправить личное сообщение
   
Страница 1 из 1
Показать сообщения за:  Поле сортировки  
Начать новую тему Ответить на тему


Сейчас этот форум просматривают: нет зарегистрированных пользователей и гости: 0


Вы не можете начинать темы
Вы не можете отвечать на сообщения
Вы не можете редактировать свои сообщения
Вы не можете удалять свои сообщения
Вы не можете добавлять вложения

Перейти:  
cron