Начать новую тему Ответить на тему
Статистика раздачи
Размер: 917.02 МБ | Добавлен: 26 мар 2019, 20:46 | Скачали: 1
Сидеров: 2  [0 байт/сек]    Личеров: 1  [0 байт/сек]
Пред. тема | След. тема 

Автор
Сообщение

СообщениеДобавлено: 26 мар 2019, 20:46 

Ответить с цитатой 

Split Enz - Spellbound

Жанр: Pop Rock / Art Rock / New Wave
Год выпуска диска: 1997
Производитель диска: Australia
Аудио кодек: APE
Тип рипа: image+.cue
Битрейт аудио: lossless
Продолжительность: 69:13 ; 72:02
Трэклист:
01. Dirty Creature
02. Strait Old Line
03. I See Red
04. I Got You
05. Late Last Night
06. One Step Ahead
07. I Hope I Never
08. Voices
09. Pioneer
10. Six Months In A Leaky Boat
11. Message To My Girl
12. Take A Walk
13. Nobody Takes Me Seriously
14. What's The Matter With You
15. Poor Boy
16. Shark Attack
17. Charlie
18. Time For A Change
19. I Walk Away
Exact Audio Copy V0.99 prebeta 5 from 4. May 2009
EAC extraction logfile from 7. March 2010, 18:53
Split Enz / Spellbound
Used drive : _NEC DVD_RW ND-3550A Adapter: 4 ID: 0
Read mode : Secure
Utilize accurate stream : Yes
Defeat audio cache : Yes
Make use of C2 pointers : No
Read offset correction : 48
Overread into Lead-In and Lead-Out : No
Fill up missing offset samples with silence : Yes
Delete leading and trailing silent blocks : No
Null samples used in CRC calculations : Yes
Used interface : Native Win32 interface for Win NT & 2000
Used output format : Monkey's Audio Lossless Encoder v3.99 DLL
Sample format : High Lossless Compression
TOC of the extracted CD
Track | Start | Length | Start sector | End sector
---------------------------------------------------------
1 | 0:00.00 | 4:03.27 | 0 | 18251
2 | 4:03.27 | 3:59.70 | 18252 | 36246
3 | 8:03.22 | 3:14.45 | 36247 | 50841
4 | 11:17.67 | 3:29.62 | 50842 | 66578
5 | 14:47.54 | 4:02.72 | 66579 | 84800
6 | 18:50.51 | 2:53.22 | 84801 | 97797
7 | 21:43.73 | 4:32.10 | 97798 | 118207
8 | 26:16.08 | 3:22.68 | 118208 | 133425
9 | 29:39.01 | 1:30.55 | 133426 | 140230
10 | 31:09.56 | 4:21.07 | 140231 | 159812
11 | 35:30.63 | 4:02.33 | 159813 | 177995
12 | 39:33.21 | 3:34.22 | 177996 | 194067
13 | 43:07.43 | 3:27.22 | 194068 | 209614
14 | 46:34.65 | 3:07.30 | 209615 | 223669
15 | 49:42.20 | 3:26.15 | 223670 | 239134
16 | 53:08.35 | 2:58.55 | 239135 | 252539
17 | 56:07.15 | 5:46.45 | 252540 | 278534
18 | 61:53.60 | 3:30.38 | 278535 | 294322
19 | 65:24.23 | 3:48.50 | 294323 | 311472
Range status and errors
Selected range
Filename D:\Downloads\Split Enz - Spellbound\CD I\Split Enz - Spellbound.ape
Peak level 100.0 %
Range quality 100.0 %
Test CRC F2D9CE6A
Copy CRC F2D9CE6A
Copy OK
No errors occurred
End of status report
REM GENRE Rock
REM DATE 1997
REM DISCID 3B103813
REM COMMENT "ExactAudioCopy v0.99pb5"
PERFORMER "Split Enz"
TITLE "Spellbound"
FILE "Split Enz - Spellbound.ape" WAVE
TRACK 01 AUDIO
TITLE "Dirty Creature"
PERFORMER "Split Enz"
INDEX 01 00:00:00
TRACK 02 AUDIO
TITLE "Strait Old Line"
PERFORMER "Split Enz"
INDEX 01 04:03:27
TRACK 03 AUDIO
TITLE "I See Red"
PERFORMER "Split Enz"
INDEX 01 08:03:22
TRACK 04 AUDIO
TITLE "I Got You"
PERFORMER "Split Enz"
INDEX 01 11:17:67
TRACK 05 AUDIO
TITLE "Late Last Night"
PERFORMER "Split Enz"
INDEX 01 14:47:54
TRACK 06 AUDIO
TITLE "One Step Ahead"
PERFORMER "Split Enz"
INDEX 01 18:50:51
TRACK 07 AUDIO
TITLE "I Hope I Never"
PERFORMER "Split Enz"
INDEX 01 21:43:73
TRACK 08 AUDIO
TITLE "Voices"
PERFORMER "Split Enz"
INDEX 01 26:16:08
TRACK 09 AUDIO
TITLE "Pioneer"
PERFORMER "Split Enz"
INDEX 01 29:39:01
TRACK 10 AUDIO
TITLE "Six Months In A Leaky Boat"
PERFORMER "Split Enz"
INDEX 01 31:09:56
TRACK 11 AUDIO
TITLE "Message To My Girl"
PERFORMER "Split Enz"
INDEX 01 35:30:63
TRACK 12 AUDIO
TITLE "Take A Walk"
PERFORMER "Split Enz"
INDEX 01 39:33:21
TRACK 13 AUDIO
TITLE "Nobody Takes Me Seriously"
PERFORMER "Split Enz"
INDEX 01 43:07:43
TRACK 14 AUDIO
TITLE "What's The Matter With You"
PERFORMER "Split Enz"
INDEX 01 46:34:65
TRACK 15 AUDIO
TITLE "Poor Boy"
PERFORMER "Split Enz"
INDEX 01 49:42:20
TRACK 16 AUDIO
TITLE "Shark Attack"
PERFORMER "Split Enz"
INDEX 01 53:08:35
TRACK 17 AUDIO
TITLE "Charlie"
PERFORMER "Split Enz"
INDEX 01 56:07:15
TRACK 18 AUDIO
TITLE "Time For A Change"
PERFORMER "Split Enz"
INDEX 01 61:53:60
TRACK 19 AUDIO
TITLE "I Walk Away"
PERFORMER "Split Enz"
INDEX 01 65:24:23
01. History Never Repeats
02. Bold As Brass
03. My Mistake
04. Give It A Whirl
05. Sugar And Spice
06. Without A Doubt
07. Haul Away
08. Stuff And Nonsense
09. The Devil You Know
10. Maybe
11. Matinee Idyll (129)
12. Titus
13. Another Great Divide
14. Semi Detatched
15. Hermitt McDermitt
16. Doctor Love
17. Make Sense Of It
18. Sweet Dreams
19. Years Go By
20. Mental Notes
Exact Audio Copy V0.99 prebeta 5 from 4. May 2009
EAC extraction logfile from 7. March 2010, 19:25
Split Enz / Spellbound
Used drive : _NEC DVD_RW ND-3550A Adapter: 4 ID: 0
Read mode : Secure
Utilize accurate stream : Yes
Defeat audio cache : Yes
Make use of C2 pointers : No
Read offset correction : 48
Overread into Lead-In and Lead-Out : No
Fill up missing offset samples with silence : Yes
Delete leading and trailing silent blocks : No
Null samples used in CRC calculations : Yes
Used interface : Native Win32 interface for Win NT & 2000
Used output format : Monkey's Audio Lossless Encoder v3.99 DLL
Sample format : High Lossless Compression
TOC of the extracted CD
Track | Start | Length | Start sector | End sector
---------------------------------------------------------
1 | 0:00.00 | 2:58.58 | 0 | 13407
2 | 2:58.58 | 3:28.70 | 13408 | 29077
3 | 6:27.53 | 3:00.45 | 29078 | 42622
4 | 9:28.23 | 2:50.48 | 42623 | 55420
5 | 12:18.71 | 3:50.70 | 55421 | 72740
6 | 16:09.66 | 5:57.32 | 72741 | 99547
7 | 22:07.23 | 2:28.23 | 99548 | 110670
8 | 24:35.46 | 4:20.63 | 110671 | 130233
9 | 28:56.34 | 3:34.25 | 130234 | 146308
10 | 32:30.59 | 2:53.35 | 146309 | 159318
11 | 35:24.19 | 2:46.10 | 159319 | 171778
12 | 38:10.29 | 3:14.00 | 171779 | 186328
13 | 41:24.29 | 3:37.40 | 186329 | 202643
14 | 45:01.69 | 5:02.35 | 202644 | 225328
15 | 50:04.29 | 4:21.20 | 225329 | 244923
16 | 54:25.49 | 4:13.58 | 244924 | 263956
17 | 58:39.32 | 3:33.55 | 263957 | 279986
18 | 62:13.12 | 5:02.38 | 279987 | 302674
19 | 67:15.50 | 4:12.62 | 302675 | 321636
20 | 71:28.37 | 0:33.55 | 321637 | 324166
Range status and errors
Selected range
Filename D:\Downloads\Split Enz - Spellbound\CD II\Split Enz - Spellbound.ape
Peak level 100.0 %
Range quality 100.0 %
Test CRC A04DD6EC
Copy CRC A04DD6EC
Copy OK
No errors occurred
End of status report
REM GENRE Rock
REM DATE 1997
REM DISCID 1D10E214
REM COMMENT "ExactAudioCopy v0.99pb5"
PERFORMER "Split Enz"
TITLE "Spellbound"
FILE "Split Enz - Spellbound.ape" WAVE
TRACK 01 AUDIO
TITLE "History Never Repeats"
PERFORMER "Split Enz"
INDEX 01 00:00:00
TRACK 02 AUDIO
TITLE "Bold As Brass"
PERFORMER "Split Enz"
INDEX 01 02:58:58
TRACK 03 AUDIO
TITLE "My Mistake"
PERFORMER "Split Enz"
INDEX 01 06:27:53
TRACK 04 AUDIO
TITLE "Give It A Whirl"
PERFORMER "Split Enz"
INDEX 01 09:28:23
TRACK 05 AUDIO
TITLE "Sugar And Spice"
PERFORMER "Split Enz"
INDEX 01 12:18:71
TRACK 06 AUDIO
TITLE "Without A Doubt"
PERFORMER "Split Enz"
INDEX 01 16:09:66
TRACK 07 AUDIO
TITLE "Haul Away"
PERFORMER "Split Enz"
INDEX 01 22:07:23
TRACK 08 AUDIO
TITLE "Stuff And Nonsense"
PERFORMER "Split Enz"
INDEX 01 24:35:46
TRACK 09 AUDIO
TITLE "The Devil You Know"
PERFORMER "Split Enz"
INDEX 01 28:56:34
TRACK 10 AUDIO
TITLE "Maybe"
PERFORMER "Split Enz"
INDEX 01 32:30:59
TRACK 11 AUDIO
TITLE "Matinee Idyll (129)"
PERFORMER "Split Enz"
INDEX 01 35:24:19
TRACK 12 AUDIO
TITLE "Titus"
PERFORMER "Split Enz"
INDEX 01 38:10:29
TRACK 13 AUDIO
TITLE "Another Great Divide"
PERFORMER "Split Enz"
INDEX 01 41:24:29
TRACK 14 AUDIO
TITLE "Semi Detatched"
PERFORMER "Split Enz"
INDEX 01 45:01:69
TRACK 15 AUDIO
TITLE "Hermitt McDermitt"
PERFORMER "Split Enz"
INDEX 01 50:04:29
TRACK 16 AUDIO
TITLE "Doctor Love"
PERFORMER "Split Enz"
INDEX 01 54:25:49
TRACK 17 AUDIO
TITLE "Make Sense Of It"
PERFORMER "Split Enz"
INDEX 01 58:39:32
TRACK 18 AUDIO
TITLE "Sweet Dreams"
PERFORMER "Split Enz"
INDEX 01 62:13:12
TRACK 19 AUDIO
TITLE "Years Go By"
PERFORMER "Split Enz"
INDEX 01 67:15:50
TRACK 20 AUDIO
TITLE "Mental Notes"
PERFORMER "Split Enz"
INDEX 01 71:28:37

Доп. информация :http://www.youtube.com/watch?v=zfytdyMy2-k
Правила, инструкции, FAQ!!!
Торрент  Добавлен [26 мар 2019, 20:46] Скачать торрент Магнет ссылка
Скачать торрент
[ Размер 18.81 КБ / Просмотров 10 ]

Статус
Проверен 
 
Размер  917.02 МБ
Приватный: Нет (DHT включён)
.torrent скачан  1
 


     Отправить личное сообщение
   
Страница 1 из 1
Показать сообщения за:  Поле сортировки  
Начать новую тему Ответить на тему


Сейчас этот форум просматривают: нет зарегистрированных пользователей и гости: 0


Вы не можете начинать темы
Вы не можете отвечать на сообщения
Вы не можете редактировать свои сообщения
Вы не можете удалять свои сообщения
Вы не можете добавлять вложения

Перейти:  
cron