Начать новую тему Ответить на тему
Статистика раздачи
Размер: 456.66 МБ | Добавлен: 26 мар 2019, 20:19 | Скачали: 2
Сидеров: 3  [0 байт/сек]    Личеров: 1  [0 байт/сек]
Пред. тема | След. тема 

Автор
Сообщение

СообщениеДобавлено: 26 мар 2019, 20:19 

Ответить с цитатой 

Eric Serra / RXRA
Жанр: Pop Rock,Art - Rock
Страна-производитель диска: France
Год издания: 1998
Издатель (лейбл): Virgin
Номер по каталогу: 7243 8455582 5
Страна: France
Аудиокодек: FLAC (*.flac)
Тип рипа: image+.cue
Битрейт аудио: lossless
Продолжительность: 01:02:05
Источник (релизер): мой рип
Наличие сканов в содержимом раздачи: да
Треклист:
01. Howl - 06:16
02. I Wanna Get Out Of Here - 04:38
03. Thank Your God - 03:42
04. Anybody Hello - 07:11
05. I Like This - 05:51
06. Child Of Babylon - 04:23
07. Lonely Moment - 05:15
08. Wake Up The Sleepwalkers - 03:56
09. The Babylonauts - 04:42
10. Drumming For You - 03:48
11. The Endless Night - 05:19
12. Little Light Of Love - 06:59
Код:
CUERipper v2.1.2 Copyright (C) 2008-10 Gregory S. Chudov
EAC extraction logfile from 15. April 2012, 16:29
Eric Serra / RXRA
Used drive  : Optiarc DVD RW AD-7203A   Adapter: 1  ID: 0
Read mode               : Secure
Utilize accurate stream : Yes
Defeat audio cache      : Yes
Make use of C2 pointers : No
Read offset correction                      : 48
Overread into Lead-In and Lead-Out          : No
Fill up missing offset samples with silence : Yes
Delete leading and trailing silent blocks   : No
Null samples used in CRC calculations       : Yes
Used interface                              : Native Win32 interface for Win NT & 2000
Used output format : Internal WAV Routines
Sample format      : 44.100 Hz; 16 Bit; Stereo
TOC of the extracted CD
     Track |   Start  |  Length  | Start sector | End sector
    ---------------------------------------------------------
        1  |  0:00.00 |  6:16.42 |         0    |    28241
        2  |  6:16.42 |  4:38.23 |     28242    |    49114
        3  | 10:54.65 |  3:42.25 |     49115    |    65789
        4  | 14:37.15 |  7:13.62 |     65790    |    98326
        5  | 21:51.02 |  5:51.73 |     98327    |   124724
        6  | 27:43.00 |  4:24.10 |    124725    |   144534
        7  | 32:07.10 |  5:16.15 |    144535    |   168249
        8  | 37:23.25 |  3:56.55 |    168250    |   186004
        9  | 41:20.05 |  4:42.20 |    186005    |   207174
       10  | 46:02.25 |  3:51.35 |    207175    |   224534
       11  | 49:53.60 |  5:19.35 |    224535    |   248494
       12  | 55:13.20 |  6:59.62 |    248495    |   279981
Range status and errors
Selected range
     Filename C:\Documents and Settings\Sergei\Мои документы\Моя музыка\Eric Serra\1998 - RXRA\Eric Serra - RXRA.wav
     Peak level 99.7 %
     Range quality 100.0 %
     Test CRC 438CE592
     Copy CRC 438CE592
     Copy OK
No errors occurred
AccurateRip summary
Track  1  accurately ripped (confidence 8)  [7A29AEEC]
Track  2  accurately ripped (confidence 8)  [462B4EFA]
Track  3  accurately ripped (confidence 8)  [398E03B2]
Track  4  accurately ripped (confidence 8)  [36B1E78E]
Track  5  accurately ripped (confidence 7)  [4F1BD79D]
Track  6  accurately ripped (confidence 8)  [72FBB4E8]
Track  7  accurately ripped (confidence 7)  [BB21A489]
Track  8  accurately ripped (confidence 7)  [24BABF1B]
Track  9  accurately ripped (confidence 5)  [F0445D73]
Track 10  accurately ripped (confidence 5)  [0AAB9F14]
Track 11  accurately ripped (confidence 5)  [5589CCD6]
Track 12  accurately ripped (confidence 8)  [1AA0D37D]
All tracks accurately ripped
End of status report
Код:
REM ACCURATERIPID 001bd998-0101e7da-c10e950c
REM DISCID C10E950C
REM COMMENT "ExactAudioCopy v0.99pb4"
PERFORMER "Eric Serra"
TITLE "RXRA"
CATALOG 0000000000000
REM DATE 1998
REM GENRE "Progressive Rock"
FILE "Eric Serra - RXRA.flac" WAVE
  TRACK 01 AUDIO
    PERFORMER "Eric Serra"
    TITLE "Howl"
    ISRC FRQ339800012
    INDEX 01 00:00:00
  TRACK 02 AUDIO
    PERFORMER "Eric Serra"
    TITLE "I Wanna Get Out Of Here"
    ISRC FRQ339800013
    INDEX 00 06:16:40
    INDEX 01 06:16:42
  TRACK 03 AUDIO
    PERFORMER "Eric Serra"
    TITLE "Thank Your God"
    ISRC FRQ339800003
    INDEX 00 10:54:62
    INDEX 01 10:54:65
  TRACK 04 AUDIO
    PERFORMER "Eric Serra"
    TITLE "Anybody Hello"
    ISRC FRQ339800014
    INDEX 00 14:37:12
    INDEX 01 14:37:15
  TRACK 05 AUDIO
    PERFORMER "Eric Serra"
    TITLE "I Like This"
    ISRC FRQ339800015
    INDEX 00 21:48:25
    INDEX 01 21:51:02
  TRACK 06 AUDIO
    PERFORMER "Eric Serra"
    TITLE "Child Of Babylon"
    ISRC FRQ339800016
    INDEX 00 27:42:72
    INDEX 01 27:43:00
  TRACK 07 AUDIO
    PERFORMER "Eric Serra"
    TITLE "Lonely Moment"
    ISRC FRQ339800017
    INDEX 00 32:06:10
    INDEX 01 32:07:10
  TRACK 08 AUDIO
    PERFORMER "Eric Serra"
    TITLE "Wake Up The Sleepwalkers"
    ISRC FRQ339800018
    INDEX 00 37:22:35
    INDEX 01 37:23:25
  TRACK 09 AUDIO
    PERFORMER "Eric Serra"
    TITLE "The Babylonauts"
    ISRC FRQ339800019
    INDEX 00 41:20:02
    INDEX 01 41:20:05
  TRACK 10 AUDIO
    PERFORMER "Eric Serra"
    TITLE "Drumming For You"
    ISRC FRQ339800020
    INDEX 00 46:02:22
    INDEX 01 46:02:25
  TRACK 11 AUDIO
    PERFORMER "Eric Serra"
    TITLE "The Endless Night"
    ISRC FRQ339800010
    INDEX 00 49:50:57
    INDEX 01 49:53:60
  TRACK 12 AUDIO
    PERFORMER "Eric Serra"
    TITLE "Little Light Of Love"
    ISRC FRQ339800011
    INDEX 00 55:13:17
    INDEX 01 55:13:20
Код:
-----------------------
DON'T MODIFY THIS FILE
-----------------------
PERFORMER: auCDtect Task Manager, ver. 1.5.1RC6 build 1.5.1.7
Copyright (c) 2008-2010 y-soft. All rights reserved
[url=http://y-soft.org]http://y-soft.org[/url]
ANALYZER: auCDtect: CD records authenticity detector, version 0.8.2
Copyright (c) 2004 Oleg Berngardt. All rights reserved.
Copyright (c) 2004 Alexander Djourik. All rights reserved.
FILE: Eric Serra - RXRA.flac
  Size: 405694861 Hash: 775B4564D2759F6CAA135A3B579D7EF0 Accuracy: -m0
  Conclusion: CDDA 100%
  Signature: 025C0A57C845E086977DF74E19E6D5D3D6AC199A
Доп. информация: http://rateyourmusic.com/artist/eric_serra
Правила, инструкции, FAQ!!!
Торрент  Добавлен [26 мар 2019, 20:19] Скачать торрент Магнет ссылка
Скачать торрент
[ Размер 19.08 КБ / Просмотров 12 ]

Статус
Проверен 
 
Размер  456.66 МБ
Приватный: Нет (DHT включён)
.torrent скачан  2
 


     Отправить личное сообщение
   
Страница 1 из 1
Показать сообщения за:  Поле сортировки  
Начать новую тему Ответить на тему


Сейчас этот форум просматривают: нет зарегистрированных пользователей и гости: 0


Вы не можете начинать темы
Вы не можете отвечать на сообщения
Вы не можете редактировать свои сообщения
Вы не можете удалять свои сообщения
Вы не можете добавлять вложения

Перейти:  
cron