Начать новую тему Ответить на тему
Статистика раздачи
Размер: 340.01 МБ | Добавлен: 26 мар 2019, 20:31 | Скачали: 0
Сидеров: 0  [0 байт/сек]    Личеров: 0  [0 байт/сек]
Пред. тема | След. тема 

Автор
Сообщение

СообщениеДобавлено: 26 мар 2019, 20:31 

Ответить с цитатой 

Apostol / Aranyalbum (Nehéz a boldogságtól búcsút venni)
Жанр: Pop-Rock
Носитель: CD
Страна-производитель диска (релиза): Hungary
Год издания: 1996
Издатель (лейбл): HCD
Номер по каталогу: 37861
Страна исполнителя (группы): Hungary
Аудиокодек: FLAC (*.flac)
Тип рипа: image+.cue
Битрейт аудио: lossless
Продолжительность: 00:58:03
Источник (релизер): собственный рип
Наличие сканов в содержимом раздачи: нет

01. Nehez a boldogsagtol bucsut venni
02. Halld a szivek dallamat
03. Okosabban kene elni
04. Ne bantsd a tangot
05. Ez az a tanc
06. Feny az arcodon
07. Ma este felmegyek majd hozzad
08. Elado, kiado most a szivem
09. Buborek ember
10. A harcot feladom
11. A legtobb ember
12. Neked adom azt is ami nincs
13. Sir a harang
14. Nem tudok elni nelkuled
15. Bucsuzik a nyar
Код:
Exact Audio Copy V1.3 from 2. September 2016
EAC extraction logfile from 16. August 2018, 21:34
Apostol / Aranyalbum
Used drive  : HL-DT-STDVDRAM GH22LS50   Adapter: 1  ID: 1
Read mode               : Secure
Utilize accurate stream : Yes
Defeat audio cache      : Yes
Make use of C2 pointers : No
Read offset correction                      : 667
Overread into Lead-In and Lead-Out          : No
Fill up missing offset samples with silence : Yes
Delete leading and trailing silent blocks   : No
Null samples used in CRC calculations       : Yes
Used interface                              : Native Win32 interface for Win NT & 2000
Used output format              : User Defined Encoder
Selected bitrate                : 1024 kBit/s
Quality                         : High
Add ID3 tag                     : No
Command line compressor         : C:\Program Files (x86)\Exact Audio Copy\FLAC\FLAC.EXE
Additional command line options : -6 -V -T "ARTIST=%artist%" -T "TITLE=%title%" -T "ALBUM=%albumtitle%" -T "DATE=%year%" -T "TRACKNUMBER=%tracknr%" -T "GENRE=%genre%" -T "COMMENT=%comment%" -T "BAND=%albuminterpret%" -T "ALBUMARTIST=%albuminterpret%" -T "COMPOSER=%composer%" %haslyrics%--tag-from-file=LYRICS="%lyricsfile%"%haslyrics% -T "DISCNUMBER=%cdnumber%" -T "TOTALDISCS=%totalcds%" -T "TOTALTRACKS=%numtracks%" %hascover%--picture="%coverfile%"%hascover% %source% -o %dest%
TOC of the extracted CD
     Track |   Start  |  Length  | Start sector | End sector
    ---------------------------------------------------------
        1  |  0:00.00 |  3:41.27 |         0    |    16601
        2  |  3:41.27 |  4:50.65 |     16602    |    38416
        3  |  8:32.17 |  3:54.18 |     38417    |    55984
        4  | 12:26.35 |  3:47.65 |     55985    |    73074
        5  | 16:14.25 |  3:10.30 |     73075    |    87354
        6  | 19:24.55 |  6:09.15 |     87355    |   115044
        7  | 25:33.70 |  3:34.62 |    115045    |   131156
        8  | 29:08.57 |  3:42.25 |    131157    |   147831
        9  | 32:51.07 |  3:05.18 |    147832    |   161724
       10  | 35:56.25 |  3:50.50 |    161725    |   179024
       11  | 39:47.00 |  3:17.20 |    179025    |   193819
       12  | 43:04.20 |  2:32.27 |    193820    |   205246
       13  | 45:36.47 |  4:07.13 |    205247    |   223784
       14  | 49:43.60 |  4:01.30 |    223785    |   241889
       15  | 53:45.15 |  4:18.57 |    241890    |   261296
Range status and errors
Selected range
     Filename F:\Apostol - Aranyalbum.wav
     Peak level 96.2 %
     Extraction speed 4.7 X
     Range quality 100.0 %
     Test CRC 78C03F39
     Copy CRC 78C03F39
     Copy OK
No errors occurred
End of status report
---- CUETools DB Plugin V2.1.6
[CTDB TOCID: _ltxo9vzl4c1ptpsW77OzOqH9SM-] found
Submit result: _ltxo9vzl4c1ptpsW77OzOqH9SM- has been confirmed
Track | CTDB Status
  1   | (8/8) Accurately ripped
  2   | (8/8) Accurately ripped
  3   | (8/8) Accurately ripped
  4   | (8/8) Accurately ripped
  5   | (8/8) Accurately ripped
  6   | (8/8) Accurately ripped
  7   | (8/8) Accurately ripped
  8   | (8/8) Accurately ripped
  9   | (8/8) Accurately ripped
 10   | (8/8) Accurately ripped
 11   | (8/8) Accurately ripped
 12   | (8/8) Accurately ripped
 13   | (8/8) Accurately ripped
 14   | (8/8) Accurately ripped
 15   | (8/8) Accurately ripped
==== Log checksum 02CB02D337FF3D7EAFE278E2DA88207A0DEFA7ADCB21D3B0AB8A59C7C8257EB1 ====
Tagok:
Németh Zoltán (1970-)
Meződi József (1973-)
Pete László (1973-)
Baranski László (1979-)
Szaniszló Lajos (1979-)
Szabó Ferenc (1984-)
A Hungaroton 1974-1983 között készült archív felvételeiből összeválogatva.
A digitális kiadáshoz a technikai korszerűsítés a "P" Stúdióban készült 1996-ban.
Правила, инструкции, FAQ!!!
Торрент  Добавлен [26 мар 2019, 20:31] Скачать торрент Магнет ссылка
Скачать торрент
[ Размер 13.96 КБ / Просмотров 6 ]

Статус
Проверен 
 
Размер  340.01 МБ
Приватный: Нет (DHT включён)
.torrent скачан  0
 


     Отправить личное сообщение
   
Страница 1 из 1
Показать сообщения за:  Поле сортировки  
Начать новую тему Ответить на тему


Сейчас этот форум просматривают: нет зарегистрированных пользователей и гости: 0


Вы не можете начинать темы
Вы не можете отвечать на сообщения
Вы не можете редактировать свои сообщения
Вы не можете удалять свои сообщения
Вы не можете добавлять вложения

Перейти:  
cron